BitTorrentTracker PerecTracker.org
BitTorrentTracker PerecTracker.org
    
Регистрация  ·  Вход
 
 · 
Забыли пароль?

  • `71 / 71 (Ян Деманж / Yann Demange) [2014, Великобритания, военный, исторический, драма, BDRip-AVC] DVO (Sunny Films) + Original (Eng) + Sub (Eng)

    Ответить на тему
     
    Автор Сообщение

    Light

    Создавать темы 15-Мар-2015 21:07

           

    [Цитировать]

    `71 / 71
    Страна: Великобритания
    Жанр: военный, исторический, драма
    Год выпуска: 2014
    Продолжительность: 01:39:25
    Перевод: Любительский (двухголосый закадровый) | Sunny Films
    Cубтитры: английские
    Оригинальная аудиодорожка: английский
    Режиссер: Ян Деманж / Yann Demange
    В ролях: Джек О'Коннелл, Ричард Дормер, Чарли Мерфи, Дэвид Уилмот, Шон Харрис, Киллиан Скотт, Сэм Рейд, Барри Киган, Пол Андерсон, Мартин Маккэнн, Бабу Сизэй, Джек Лоуден, Кори Маккинли, Пол Попплуэлл
    Описание: 1971 год. Конфликт в Северной Ирландии перерастает в гражданскую войну. Новобранца Гари отправляют в зону военных действий в Белфасте. Город разделился на «лояльных» протестантов и «враждебных» католиков. Обе стороны имеют военизированные подразделения, кроме того, радикальные уличные банды и тайные агенты со всех сторон пытаются отстаивать свои интересы...

    Исходник: BDRemux @ Kinozal
    Качество видео: BDRip-AVC | | sample
    Формат видео: MKV
    Видео кодек: x264
    Видео: AVC 1108x464 (2.40:1), 23.976 fps, ~4500 Kbps, 0.36 bit/pixel
    Аудио #1: Russian AC3 2ch 48kHz 192Kbps | DVO Sunny Films
    Аудио #2: English AC3 6ch 48kHz 448Kbps | Original
    Формат субтитров: softsub (SRT)
    Главы: есть

    MediaInfo | x264

    x264

    --[Information] [15.03.2015 4:13:38] x264 [info]: frame I:893 Avg QP:16.96 size: 57761
    --[Information] [15.03.2015 4:13:38] x264 [info]: frame P:28204 Avg QP:18.69 size: 32011
    --[Information] [15.03.2015 4:13:38] x264 [info]: frame B:113919 Avg QP:19.81 size: 21014
    --[Information] [15.03.2015 4:13:38] x264 [info]: consecutive B-frames: 2.5% 1.4% 4.6% 12.9% 15.5% 42.7% 6.9% 1.1% 2.0% 2.2% 1.8% 0.5% 1.6% 1.8% 0.1% 2.1% 0.4%
    --[Information] [15.03.2015 4:13:38] x264 [info]: kb/s:4490.58
    General
    Complete name : E:\...\'71.2014.BDRip.x264.AC3.Rus.DVO.Eng-E76.mkv
    Format : Matroska
    Format version : Version 2
    File size : 3.56 GiB
    Duration : 1h 39mn
    Overall bit rate : 5 133 Kbps
    Movie name : '71.2014.BDRip.x264.AC3.Rus.DVO.Eng-E76
    Encoded date : UTC 2015-03-15 01:47:07
    Writing application : mkvmerge v7.0.0 ('Where We Going') 64bit built on Jun 9 2014 15:16:27
    Writing library : libebml v1.3.0 + libmatroska v1.4.1
    Video
    ID : 1
    Format : AVC
    Format/Info : Advanced Video Codec
    Format profile : High@L4.1
    Format settings, CABAC : Yes
    Format settings, ReFrames : 12 frames
    Codec ID : V_MPEG4/ISO/AVC
    Bit rate : 4 391 Kbps
    Width : 1 108 pixels
    Height : 464 pixels
    Display aspect ratio : 2.40:1
    Frame rate mode : Constant
    Color space : YUV
    Chroma subsampling : 4:2:0
    Bit depth : 8 bits
    Scan type : Progressive
    Title : `71 (2014)
    Writing library : x264 core 144 r2525kMod 40bb568
    Encoding settings : cabac=1 / ref=12 / deblock=1:-2:-2 / analyse=0x3:0x113 / me=umh / subme=11 / psy=1 / fade_compensate=0.00 / psy_rd=1.00:0.00 / mixed_ref=1 / me_range=48 / chroma_me=1 / trellis=2 / 8x8dct=1 / cqm=0 / deadzone=21,11 / fast_pskip=1 / chroma_qp_offset=-2 / threads=6 / lookahead_threads=1 / sliced_threads=0 / nr=0 / decimate=1 / interlaced=0 / bluray_compat=0 / constrained_intra=0 / fgo=0 / bframes=16 / b_pyramid=2 / b_adapt=2 / b_bias=0 / direct=1 / weightb=1 / open_gop=0 / weightp=2 / keyint=240 / keyint_min=23 / scenecut=40 / intra_refresh=0 / rc_lookahead=120 / rc=crf / mbtree=1 / crf=20.3000 / qcomp=0.75 / qpmin=0 / qpmax=69 / qpstep=4 / vbv_maxrate=62500 / vbv_bufsize=78125 / crf_max=0.0 / nal_hrd=none / filler=0 / ip_ratio=1.10 / aq=3:1.10 / zones=138630,143015,q=30
    Language : English
    Default : Yes
    Forced : No
    Matrix coefficients : BT.709
    Audio #1
    ID : 2
    Format : AC-3
    Format/Info : Audio Coding 3
    Mode extension : CM (complete main)
    Format settings, Endianness : Big
    Codec ID : A_AC3
    Duration : 1h 39mn
    Bit rate mode : Constant
    Bit rate : 192 Kbps
    Channel(s) : 2 channels
    Channel positions : Front: L R
    Sampling rate : 48.0 KHz
    Bit depth : 16 bits
    Compression mode : Lossy
    Stream size : 137 MiB (4%)
    Title : DVO Sunny Films
    Language : Russian
    Default : Yes
    Forced : No
    Audio #2
    ID : 3
    Format : AC-3
    Format/Info : Audio Coding 3
    Mode extension : CM (complete main)
    Format settings, Endianness : Big
    Codec ID : A_AC3
    Duration : 1h 39mn
    Bit rate mode : Constant
    Bit rate : 448 Kbps
    Channel(s) : 6 channels
    Channel positions : Front: L C R, Side: L R, LFE
    Sampling rate : 48.0 KHz
    Bit depth : 16 bits
    Compression mode : Lossy
    Stream size : 319 MiB (9%)
    Title : Original
    Language : English
    Default : No
    Forced : No
    Text #1
    ID : 4
    Format : UTF-8
    Codec ID : S_TEXT/UTF8
    Codec ID/Info : UTF-8 Plain Text
    Language : English
    Default : No
    Forced : No
    Text #2
    ID : 5
    Format : UTF-8
    Codec ID : S_TEXT/UTF8
    Codec ID/Info : UTF-8 Plain Text
    Title : SDH
    Language : English
    Default : No
    Forced : No
    Menu
    00:00:00.000 : en:00:00:00.000
    00:07:32.661 : en:00:07:32.661
    ...
    01:30:50.236 : en:01:30:50.236

    Скриншоты




    vs source
    => Новые релизы в AVC | | Заказ рипов в AVC <=
    Скачать .torrent

    Скачать торрент-файл бесплатно и на максимальной скорости!

    Как скачивать? · Что такое торрент? · Рейтинг и ограничения

    !ВНИМАНИЕ!
    Сайт не распространяет и не хранит электронные версии произведений, а занимается лишь лишь предоставлением доступа к создаваемому пользователями каталогу ссылок на торрент-файлы, которые содержат только списки хеш-сумм, убедительная просьба с жалобами обращаться напрямую к пользователю. Файлы для обмена на трекере предоставлены пользователями сайта, и администрация не несёт ответственности за их содержание. Просьба не заливать файлы, защищенные авторскими правами, а также файлы нелегального содержания!


    _________________
    [Профиль] [ЛС]
    Показать сообщения:    
    Ответить на тему

    Текущее время: Сегодня, в 23:59

    Часовой пояс: GMT + 2



    Вы не можете начинать темы
    Вы не можете отвечать на сообщения
    Вы не можете редактировать свои сообщения
    Вы не можете удалять свои сообщения
    Вы не можете голосовать в опросах
    Вы не можете прикреплять файлы к сообщениям
    Вы не можете скачивать файлы