Register  ·  Log in
Forgot password?

  • Бархан (Санжар Бабаев) [1989, драма, криминальный фильм, экранизация, DVB]

    Reply to topic
    Author Message


    Post 15-Mar-2015 17:55



    Жанр: драма, криминальный фильм, экранизация
    Год выпуска: 1989
    Продолжительность: 01:16:46
    Режиссёр: Санжар Бабаев
    В ролях: Валерий Рыжаков, Марина Старых, Борис Токарев (II), Владимир Трещалов
    Описание: По мотивам одноимённого рассказа Владимира Соколова.
    Молодые супруги - Ирина и Гоша - отправляются на машине из Москвы в Среднюю Азию к новому месту службы. Когда трасса сменяется бездорожьем, герои оказываются в сложной ситуации не только неопытных путешественников, но и свидетелей преступления...
    Доп. информация: Запись потока *.ts со спутника EUTELSAT 36A/B, 36° в.д., ремукс в *.mpg программой VideoReDo.
    Качество видео: DVB
    Формат видео: MPEG-PS
    Видео: MPEG Video, 720(768)x576 (4:3), 25,000 кадров/сек, 4 544 Кбит/сек
    Аудио: MPEG Audio, 48,0 КГц, 192 Кбит/сек, 2 канала


    Complete name : D:\Torrent\БАРХАН (Перец 36).mpg
    Format : MPEG-PS
    File size : 2.59 GiB
    Duration : 1h 16mn
    Overall bit rate mode : Variable
    Overall bit rate : 4 832 Kbps
    ID : 224 (0xE0)
    Format : MPEG Video
    Format version : Version 2
    Format profile : Main@Main
    Format settings, BVOP : Yes
    Format settings, Matrix : Custom
    Format settings, GOP : M=1, N=38
    Duration : 1h 16mn
    Bit rate mode : Variable
    Bit rate : 4 544 Kbps
    Maximum bit rate : 15.0 Mbps
    Width : 720 pixels
    Height : 576 pixels
    Display aspect ratio : 4:3
    Frame rate : 25.000 fps
    Standard : PAL
    Color space : YUV
    Chroma subsampling : 4:2:0
    Bit depth : 8 bits
    Scan type : Interlaced
    Scan order : Top Field First
    Compression mode : Lossy
    Bits/(Pixel*Frame) : 0.438
    Stream size : 2.44 GiB (94%)
    ID : 192 (0xC0)
    Format : MPEG Audio
    Format version : Version 1
    Format profile : Layer 2
    Duration : 1h 16mn
    Bit rate mode : Constant
    Bit rate : 192 Kbps
    Channel(s) : 2 channels
    Sampling rate : 48.0 KHz
    Compression mode : Lossy
    Delay relative to video : 19ms
    Stream size : 105 MiB (4%)


    Download .torrent

    Download free and at maximum speed!

    How to Download? · What is a torrent? · Ratings and Limitations

    The site does not extend and does not store electronic(digital) versions of products, and only gives access to a reference catalogue created by users on torrent-files which contain only lists of the hash-sums, the earnest entreaty, with complaints(abuse) to access directly to the user. Files for an exchange on tracker are given by users of a site, and the administration does not bear the responsibility for their maintenance. The request to not fill in the files protected by copyrights, and also files of the illegal maintenance!

    [Profile] [PM]
    Display posts from previous:    
    Reply to topic

    The time now is: Today 14:53

    All times are GMT + 3 Hours

    You cannot post new topics in this forum
    You cannot reply to topics in this forum
    You cannot edit your posts in this forum
    You cannot delete your posts in this forum
    You cannot vote in polls in this forum
    You cannot attach files in this forum
    You cannot download files in this forum