BitTorrentTracker PerecTracker.org
BitTorrentTracker PerecTracker.org
    
Регистрация  ·  Вход
 
 · 
Забыли пароль?

  • Бархан (Санжар Бабаев) [1989, драма, криминальный фильм, экранизация, DVB]

    Ответить на тему
     
    Автор Сообщение

    Light

    Создавать темы 15-Мар-2015 16:55

           

    [Цитировать]

    Бархан
    Жанр: драма, криминальный фильм, экранизация
    Год выпуска: 1989
    Продолжительность: 01:16:46
    Режиссёр: Санжар Бабаев
    В ролях: Валерий Рыжаков, Марина Старых, Борис Токарев (II), Владимир Трещалов
    Описание: По мотивам одноимённого рассказа Владимира Соколова.
    Молодые супруги - Ирина и Гоша - отправляются на машине из Москвы в Среднюю Азию к новому месту службы. Когда трасса сменяется бездорожьем, герои оказываются в сложной ситуации не только неопытных путешественников, но и свидетелей преступления...
    Доп. информация: Запись потока *.ts со спутника EUTELSAT 36A/B, 36° в.д., ремукс в *.mpg программой VideoReDo.
    Качество видео: DVB
    Формат видео: MPEG-PS
    Видео: MPEG Video, 720(768)x576 (4:3), 25,000 кадров/сек, 4 544 Кбит/сек
    Аудио: MPEG Audio, 48,0 КГц, 192 Кбит/сек, 2 канала

    MediaInfo

    General
    Complete name : D:\Torrent\БАРХАН (Перец 36).mpg
    Format : MPEG-PS
    File size : 2.59 GiB
    Duration : 1h 16mn
    Overall bit rate mode : Variable
    Overall bit rate : 4 832 Kbps
    Video
    ID : 224 (0xE0)
    Format : MPEG Video
    Format version : Version 2
    Format profile : Main@Main
    Format settings, BVOP : Yes
    Format settings, Matrix : Custom
    Format settings, GOP : M=1, N=38
    Duration : 1h 16mn
    Bit rate mode : Variable
    Bit rate : 4 544 Kbps
    Maximum bit rate : 15.0 Mbps
    Width : 720 pixels
    Height : 576 pixels
    Display aspect ratio : 4:3
    Frame rate : 25.000 fps
    Standard : PAL
    Color space : YUV
    Chroma subsampling : 4:2:0
    Bit depth : 8 bits
    Scan type : Interlaced
    Scan order : Top Field First
    Compression mode : Lossy
    Bits/(Pixel*Frame) : 0.438
    Stream size : 2.44 GiB (94%)
    Audio
    ID : 192 (0xC0)
    Format : MPEG Audio
    Format version : Version 1
    Format profile : Layer 2
    Duration : 1h 16mn
    Bit rate mode : Constant
    Bit rate : 192 Kbps
    Channel(s) : 2 channels
    Sampling rate : 48.0 KHz
    Compression mode : Lossy
    Delay relative to video : 19ms
    Stream size : 105 MiB (4%)

    Скриншоты

    Скачать .torrent

    Скачать торрент-файл бесплатно и на максимальной скорости!

    Как скачивать? · Что такое торрент? · Рейтинг и ограничения

    !ВНИМАНИЕ!
    Сайт не распространяет и не хранит электронные версии произведений, а занимается лишь лишь предоставлением доступа к создаваемому пользователями каталогу ссылок на торрент-файлы, которые содержат только списки хеш-сумм, убедительная просьба с жалобами обращаться напрямую к пользователю. Файлы для обмена на трекере предоставлены пользователями сайта, и администрация не несёт ответственности за их содержание. Просьба не заливать файлы, защищенные авторскими правами, а также файлы нелегального содержания!


    _________________
    [Профиль] [ЛС]
    Показать сообщения:    
    Ответить на тему

    Текущее время: Сегодня, в 04:04

    Часовой пояс: GMT + 2



    Вы не можете начинать темы
    Вы не можете отвечать на сообщения
    Вы не можете редактировать свои сообщения
    Вы не можете удалять свои сообщения
    Вы не можете голосовать в опросах
    Вы не можете прикреплять файлы к сообщениям
    Вы не можете скачивать файлы