BitTorrentTracker PerecTracker.org
BitTorrentTracker PerecTracker.org
    
Регистрация  ·  Вход
 
 · 
Забыли пароль?

  • [ATV3] Две женщины (Вера Глаголева) [2014, Россия, Франция, Латвия, Великобритания, драма, WEB-DL HD (1080p)] Original

    Ответить на тему
     
    Автор Сообщение

    rechyn

    Создавать темы 15-Мар-2015 12:43

           

    [Цитировать]

    Две женщины
    6.589 / 10
    -Год выпуска: 2014
    Страна: Россия, Франция, Латвия, Великобритания
    Жанр: драма
    Продолжительность: 100 мин.
    Перевод: Не требуется
    Оригинальная аудиодорожка: Есть
    Cубтитры: Нет
    Режиссёр: Вера Глаголева
    Сценарий: Светлана Грудович, Ольга Погодина-Кузмина, Вера Глаголева
    Продюсер: Наталья Иванова, Вера Глаголева, Антра Цилинска
    Оператор: Гинтс Берзиньш
    Композитор: Сергей Баневич
    В ролях: Анна Астраханцева, Рэйф Файнс, Александр Балуев, Сильви Тестю, Никита Волков, Анна Леванова, Лариса Малеванная, Бернд Мосс, Сергей Юшкевич, Василий Мищенко
    Бюджет: €2 860 000
    Сборы в России: $38 047
    Мировая премьера: 23 ноября 2014
    Премьера (РФ): 22 января 2015, Парадиз
    Релиз на DVD: 31 марта 2015, Lizard Cinema Trade, Парадиз / Активижен
    Описание: Волевая молодая женщина состоит в браке с крупным землевладельцем. Но однажды она безответно влюбляется в наставника собственного сына.-Качество исходника: WEB-DL 1080p (HDClub)
    Качество: WEB-DL
    Тип: 1080p
    Контейнер: m4v
    Видео: 1920x1080 at 25.000 fps, MPEG-4 AVC, 5000 kbps avg
    Аудио#1: Russian: 48 kHz, ААС, 2/0 (L,R), ~160.00 kbps avg
    Аудио#2: Russian: 48 kHz, AC3, 3/2 (L,C,R,l,r) + LFE ch, ~384.00 kbps avg-

    Знаете ли Вы, что...
  • Фильм снят по пьесе Ивана Тургенева «Месяц в деревне».
    -

    iTunes Meta Tags for country ru

    Name: Две женщины
    Artist: Вера Глаголева
    Genre: Drama
    Release Date: 2014-11-23T08:00:00Z
    Description: Волевая молодая женщина состоит в браке с крупным землевладельцем. Но однажды она безответно влюбляется в наставника собственного сына.
    Long Description: Волевая молодая женщина состоит в браке с крупным землевладельцем. Но однажды она безответно влюбляется в наставника собственного сына.
    Rating: 16+
    Studio: Хорошо Продакшн, Rezo Productions
    Cast: Анна Астраханцева, Рэйф Файнс, Александр Балуев, Сильви Тестю, Никита Волков, Анна Леванова, Лариса Малеванная, Бернд Мосс, Сергей Юшкевич, Василий Мищенко
    Director: Вера Глаголева
    Producers: Наталья Иванова, Вера Глаголева, Антра Цилинска
    Screenwriters: Светлана Грудович, Ольга Погодина-Кузмина, Вера Глаголева
    Copyright: © 2014 REZO PRODUCTIONS
    contentID: 969808966
    XID: Apple:vendor_id:2014-596452
    Sort Name: Две женщины

    MediaInfo 1080p Release

    General
    Complete name : Две женщины (1080p HD).m4v
    Format : MPEG-4
    Codec ID : M4V
    File size : 3.84 GiB
    Duration : 1h 39mn
    Overall bit rate mode : Variable
    Overall bit rate : 5 531 Kbps
    Movie name : Две женщины
    Performer : Вера Глаголева
    Genre : Drama
    ContentType : Short Film
    Description : Волевая молодая женщина состоит в браке с крупным землевладельцем. Но однажды она безответно влюбляется в наставника собственного сына.
    Recorded date : UTC 2014-11-23 08:00:00
    Encoded date : UTC 2015-03-15 07:42:06
    Tagged date : UTC 2015-03-15 08:16:46
    Copyright : © 2014 REZO PRODUCTIONS
    Cover : Yes
    Rating : None
    Title/Sort : Две женщины
    LongDescription : Волевая молодая женщина состоит в браке с крупным землевладельцем. Но однажды она безответно влюбляется в наставника собственного сына.
    AppleStoreCatalogID : 969808966
    Vendor : Apple:vendor_id:2014-596452
    ContentRating : ru-movie|16+|375|
    iTunMOVI : <?xml version="1.0" encoding="UTF-8"?> / <!DOCTYPE plist PUBLIC "-//Apple//DTD PLIST 1.0//EN" "http://anonym.to/?http://www.apple.com/DTDs/PropertyList-1.0.dtd"> / <plist version="1.0"> / <dict> /  <key>cast</key> /  <array> /   <dict> /    <key>name</key> /    <string>Анна Астраханцева</string> /   </dict> /   <dict> /    <key>name</key> /    <string>Рэйф Файнс</string> /   </dict> /   <dict> /    <key>name</key> /    <string>Александр Балуев</string> /   </dict> /   <dict> /    <key>name</key> /    <string>Сильви Тестю</string> /   </dict> /   <dict> /    <key>name</key> /    <string>Никита Волков</string> /   </dict> /   <dict> /    <key>name</key> /    <string>Анна Леванова</string> /   </dict> /   <dict> /    <key>name</key> /    <string>Лариса Малеванная</string> /   </dict> /   <dict> /    <key>name</key> /    <string>Бернд Мосс</string> /   </dict> /   <dict> /    <key>name</key> /    <string>Сергей Юшкевич</string> /   </dict> /   <dict> /    <key>name</key> /    <string>Василий Мищенко</string> /   </dict> /  </array> /  <key>directors</key> /  <array> /   <dict> /    <key>name</key> /    <string>Вера Глаголева</string> /   </dict> /  </array> /  <key>producers</key> /  <array> /   <dict> /    <key>name</key> /    <string>Наталья Иванова</string> /   </dict> /   <dict> /    <key>name</key> /    <string>Вера Глаголева</string> /   </dict> /   <dict> /    <key>name</key> /    <string>Антра Цилинска</string> /   </dict> /  </array> /  <key>screenwriters</key> /  <array> /   <dict> /    <key>name</key> /    <string>Светлана Грудович</string> /   </dict> /   <dict> /    <key>name</key> /    <string>Ольга Погодина-Кузмина</string> /   </dict> /   <dict> /    <key>name</key> /    <string>Вера Глаголева</string> /   </dict> /  </array> /  <key>studio</key> /  <string>Хорошо Продакшн, Rezo Productions</string> / </dict> / </plist>
    Video #1
    ID : 1
    Format : AVC
    Format/Info : Advanced Video Codec
    Format profile : High@L4.0
    Format settings, CABAC : Yes
    Format settings, ReFrames : 4 frames
    Codec ID : avc1
    Codec ID/Info : Advanced Video Coding
    Duration : 1h 39mn
    Bit rate : 4 975 Kbps
    Width : 1 920 pixels
    Height : 1 080 pixels
    Display aspect ratio : 16:9
    Frame rate mode : Constant
    Frame rate : 25.000 fps
    Color space : YUV
    Chroma subsampling : 4:2:0
    Bit depth : 8 bits
    Scan type : Progressive
    Bits/(Pixel*Frame) : 0.096
    Stream size : 3.46 GiB (90%)
    Language : Russian
    Encoded date : UTC 2015-03-15 07:42:06
    Tagged date : UTC 2015-03-15 07:51:58
    Color primaries : BT.709
    Transfer characteristics : BT.709
    Matrix coefficients : BT.709
    Video #2
    ID : 5
    Format : JPEG
    Codec ID : jpeg
    Duration : 1h 39mn
    Bit rate mode : Variable
    Bit rate : 1 523 bps
    Width : 640 pixels
    Height : 360 pixels
    Display aspect ratio : 16:9
    Frame rate mode : Variable
    Frame rate : 0.003 fps
    Minimum frame rate : 0.002 fps
    Maximum frame rate : 0.004 fps
    Color space : YUV
    Chroma subsampling : 4:2:0
    Bit depth : 8 bits
    Compression mode : Lossy
    Bits/(Pixel*Frame) : 2.203
    Stream size : 1.03 MiB (0%)
    Language : Russian
    Encoded date : UTC 2015-03-15 07:52:06
    Tagged date : UTC 2015-03-15 07:52:06
    Audio #1
    ID : 2
    Format : AAC
    Format/Info : Advanced Audio Codec
    Format profile : LC
    Codec ID : 40
    Duration : 1h 39mn
    Bit rate mode : Variable
    Bit rate : 165 Kbps
    Maximum bit rate : 246 Kbps
    Channel(s) : 2 channels
    Channel positions : Front: L R
    Sampling rate : 48.0 KHz
    Compression mode : Lossy
    Stream size : 117 MiB (3%)
    Language : Russian
    Encoded date : UTC 2015-03-15 07:42:06
    Tagged date : UTC 2015-03-15 07:43:30
    Audio #2
    ID : 3
    Format : AC-3
    Format/Info : Audio Coding 3
    Mode extension : CM (complete main)
    Format settings, Endianness : Big
    Codec ID : ac-3
    Duration : 1h 39mn
    Bit rate mode : Constant
    Bit rate : 384 Kbps
    Channel(s) : 6 channels
    Channel positions : Front: L C R, Side: L R, LFE
    Sampling rate : 48.0 KHz
    Bit depth : 16 bits
    Compression mode : Lossy
    Stream size : 273 MiB (7%)
    Language : Russian
    Encoded date : UTC 2015-03-15 07:42:06
    Tagged date : UTC 2015-03-15 07:51:58
    Menu #1
    00:00:00.000 : 1
    00:06:01.000 : 2
    00:11:16.000 : 3
    00:16:47.000 : 4
    00:22:52.000 : 5
    00:29:06.000 : 6
    00:35:15.000 : 7
    00:40:35.000 : 8
    00:46:24.000 : 9
    00:52:19.000 : 10
    00:57:49.000 : 11
    01:03:45.000 : 12
    01:09:04.000 : 13
    01:15:09.000 : 14
    01:22:01.000 : 15
    01:28:24.000 : 16
    01:33:06.000 : 17
    Menu #2
    ID : 4
    Codec ID : text
    Duration : 1h 39mn
    Language : Russian
    Encoded date : UTC 2015-03-15 07:51:58
    Tagged date : UTC 2015-03-15 07:51:58
    00:00:00.000 : 1
    00:06:01.000 : 2
    00:11:16.000 : 3
    00:16:47.000 : 4
    00:22:52.000 : 5
    00:29:06.000 : 6
    00:35:15.000 : 7
    00:40:35.000 : 8
    00:46:24.000 : 9
    00:52:19.000 : 10
    00:57:49.000 : 11
    01:03:45.000 : 12
    01:09:04.000 : 13
    01:15:09.000 : 14
    01:22:01.000 : 15
    01:28:24.000 : 16
    01:33:06.000 : 17
    Bit rate mode : VBR

    Скриншоты 1080p Release

    -

    Релиз подготовлен для просмотра на Apple TV, iPad, iPhone, iPod Touch.
    Для просмотра данного релиза на компьютере с ОС Windows рекомендуется использовать VLC media player
    Скачать .torrent

    Скачать торрент-файл бесплатно и на максимальной скорости!

    Как скачивать? · Что такое торрент? · Рейтинг и ограничения

    !ВНИМАНИЕ!
    Сайт не распространяет и не хранит электронные версии произведений, а занимается лишь лишь предоставлением доступа к создаваемому пользователями каталогу ссылок на торрент-файлы, которые содержат только списки хеш-сумм, убедительная просьба с жалобами обращаться напрямую к пользователю. Файлы для обмена на трекере предоставлены пользователями сайта, и администрация не несёт ответственности за их содержание. Просьба не заливать файлы, защищенные авторскими правами, а также файлы нелегального содержания!


  • _________________
    [Профиль] [ЛС]
    Показать сообщения:    
    Ответить на тему

    Текущее время: Сегодня, в 12:47

    Часовой пояс: GMT + 2



    Вы не можете начинать темы
    Вы не можете отвечать на сообщения
    Вы не можете редактировать свои сообщения
    Вы не можете удалять свои сообщения
    Вы не можете голосовать в опросах
    Вы не можете прикреплять файлы к сообщениям
    Вы не можете скачивать файлы