BitTorrentTracker PerecTracker.org
BitTorrentTracker PerecTracker.org
    
Регистрация  ·  Вход
 
 · 
Забыли пароль?

  • Рождественская история / Духи Рождества / A Christmas Carol (Стэн Филлипс / Stan Phillips) [1997, мультфильм, фэнтези, драма, DVDRip] AVO (Юрий Живов)

    Ответить на тему
     
    Автор Сообщение

    rechyn

    Создавать темы 15-Мар-2015 12:43

           

    [Цитировать]

    Рождественская история / Духи Рождества / A Christmas CarolГод выпуска: 1997
    Страна: США | |
    Жанр: мультфильм, фэнтези, драма
    Продолжительность: 01:09:54
    Перевод: Авторский (одноголосый закадровый) - Юрий Живов
    Русские субтитры: нет
    Режиссер: Стэн Филлипс / Stan Phillips
    Сценарий: Чарльз Диккенс / Charles Dickens, Джимн Магон / Jymn Magon
    Продюсер: Стэн Филлипс / Stan Phillips, Крис Бартлман / Chris Bartleman, Кристи Баскирк / Christy Buskirk, Энди Хэйард / Andy Heyward, Робби Лондон / Robby London
    Композитор: Джон Кэмпбелл / John Campbell
    В ролях: Тим Карри (Ebenezer Scrooge, озвучка), Вупи Голдберг (Spirit of Christmas Present, озвучка), Майкл Йорк (Bob Cratchit, озвучка), Эдвард Эснер (Marley, озвучка), Фрэнк Уэлкер (Debit, озвучка), Кэт Сауси (Mrs. Cratchit, озвучка), Джоди Бенсон (Belle, озвучка), Джон Гарри (озвучка), Эмик Байрэм (озвучка), Йен Уиткомб (озвучка), Джо Лала (озвучка), Дэвид Вагнер (озвучка)--Описание: Похоронив своего давнего друга и партнера по бизнесу, Эбенезер Скрудж, и так не отличавшийся особой душевной добротой, впал в уныние и возненавидел весь окружающий мир. Особенно достается его верному и безответному помощнику Бобу Крэтчиту.
    Но когда в Рождественскую ночь Скруджу являются Духи Рождества, они открывают ему глаза на его прошлое, настоящее и будущее. Скрудж понимает, что в погоне за богатством лишился самого главного: счастья любить и быть любимым.
    Умоляя Духов дать ему второй шанс, Скрудж обещает изменить образ жизни и навсегда «впустить Рождество к себе в сердце»...-Рейтинг
    : 7.764 (188)
    imdb.com: 5.90 (350)
    MPAA: PG - Рекомендуется присутствие родителей
    -Качество: DVDRip (Cпасибо xfiles)
    Формат: AVI ///СОВМЕСТИМО С БЫТОВЫМИ ПЛЕЕРАМИ///
    Размер : 1/6 DVD-R
    Видео: 624x480 (1.30:1), 23.976 fps, XviD build 66 ~1352 kbps avg, 0.19 bit/pixel //SAMPLE//
    Аудио: 48 kHz, AC3 Dolby Digital, 1/0 (C) ch, ~128 kbps - RUS - AVO (Юрий Живов)

    Скриншоты



    -

    MediaInfo

    [color=black]General
    Complete name               : H:\!Allfilms\Rozhdestvenskaya.Istoriya.1997.XviD.DVDRip.avi
    Format                      : AVI
    Format/Info                 : Audio Video Interleave
    File size                   : 745 MiB
    Duration                    : 1h 9mn
    Overall bit rate            : 1 490 Kbps
    Movie name                  : Рождественская история / Духи Рождества / A Christmas Carol [1997] DVDRip
    Director                    : Юpист
    Genre                       : мультфильм, фэнтези, драма
    Writing application         : VirtualDubMod 1.5.10.3 | www.virtualdub-fr.org || (build 2550/release)
    Writing library             : VirtualDubMod build 2550/release
    Copyright                   : rutracker.org
    Video
    ID                          : 0
    Format                      : MPEG-4 Visual
    Format profile              : Advanced Simple@L5
    Format settings, BVOP       : 1
    Format settings, QPel       : No
    Format settings, GMC        : No warppoints
    Format settings, Matrix     : Custom
    Codec ID                    : XVID
    Codec ID/Hint               : XviD
    Duration                    : 1h 9mn
    Bit rate                    : 1 353 Kbps
    Width                       : 624 pixels
    Height                      : 480 pixels
    Display aspect ratio        : 4:3
    Frame rate                  : 23.976 fps
    Color space                 : YUV
    Chroma subsampling          : 4:2:0
    Bit depth                   : 8 bits
    Scan type                   : Progressive
    Compression mode            : Lossy
    Bits/(Pixel*Frame)          : 0.188
    Stream size                 : 677 MiB (91%)
    Writing library             : XviD 66
    Audio
    ID                          : 1
    Format                      : AC-3
    Format/Info                 : Audio Coding 3
    Mode extension              : CM (complete main)
    Format settings, Endianness : Big
    Codec ID                    : 2000
    Duration                    : 1h 9mn
    Bit rate mode               : Constant
    Bit rate                    : 128 Kbps
    Channel(s)                  : 1 channel
    Channel positions           : Front: C
    Sampling rate               : 48.0 KHz
    Bit depth                   : 16 bits
    Compression mode            : Lossy
    Stream size                 : 64.0 MiB (9%)
    Alignment                   : Split accross interleaves
    Interleave, duration        : 42 ms (1.00 video frame)
    Interleave, preload duratio : 500 ms
    Title                       : RUS - AVO (Юрий Живов)[/color]

    -
    Сравнение
    http://screenshotcomparison.com/comparison/107802 --> http://perectracker.org/viewtopic.php?t=4309165-"Призраков", вроде, победил, но гребёнку не полностью http://screenshotcomparison.com/comparison/107801/picture:1
    более сложный скрип при обработке на моём калькуляторе выходит за пределы разумных временных рамок
    Скачать .torrent

    Скачать торрент-файл бесплатно и на максимальной скорости!

    Как скачивать? · Что такое торрент? · Рейтинг и ограничения

    !ВНИМАНИЕ!
    Сайт не распространяет и не хранит электронные версии произведений, а занимается лишь лишь предоставлением доступа к создаваемому пользователями каталогу ссылок на торрент-файлы, которые содержат только списки хеш-сумм, убедительная просьба с жалобами обращаться напрямую к пользователю. Файлы для обмена на трекере предоставлены пользователями сайта, и администрация не несёт ответственности за их содержание. Просьба не заливать файлы, защищенные авторскими правами, а также файлы нелегального содержания!


    _________________
    [Профиль] [ЛС]
    Показать сообщения:    
    Ответить на тему

    Текущее время: Сегодня, в 20:35

    Часовой пояс: GMT + 2



    Вы не можете начинать темы
    Вы не можете отвечать на сообщения
    Вы не можете редактировать свои сообщения
    Вы не можете удалять свои сообщения
    Вы не можете голосовать в опросах
    Вы не можете прикреплять файлы к сообщениям
    Вы не можете скачивать файлы