BitTorrentTracker PerecTracker.org
BitTorrentTracker PerecTracker.org
    
Регистрация  ·  Вход
 
 · 
Забыли пароль?

  • Бадди Хатчинс / Buddy Hutchins (Джаред Кон / Jared Cohn) [2015, США, триллер, WEB-DLRip] VO (Xixidok)

    Ответить на тему
     
    Автор Сообщение

    rechyn

    Создавать темы 15-Мар-2015 00:07

           

    [Цитировать]

    Бадди Хатчинс / Buddy Hutchins
    Страна: США
    Жанр: триллер
    Год выпуска: 2015
    Продолжительность: 01:36:47-Перевод: Одноголосный закадровый, Xixidok
    Cубтитры: нет
    Режиссер: Джаред Кон / Jared Cohn-В ролях: Джейми Кеннеди, Сэлли Кёркленд, Сара Малакул Лейн, Дэвид Гир, Стив Хэнкс, Николь Александра Шипли, Деметриус Стеар, Эдвард ДеРуитер-Описание: Бадди Хатчинс — обычный парень, который делает все возможное, чтобы содержать жену и двух детей. Выздоравливающий алкоголик Бадди, не выпивал уже больше года, но оказывается, что единственная награда за свой трезвый образ жизни, это неудачи в бизнесе и измена жены. И вот, когда чаша терпения переполнена, достаточно небольшого толчка, маленькой оплеухи или грубого слова, чтобы такой парень взял в руки бензопилу и пошёл крушить всё вокруг.-Сэмпл: http://sendfile.su/1095953


    Качество видео: WEB-DLRip
    Формат видео: AVI
    Видео: XVID, 720х304, 2,35:1, 23,976 кадра/сек, 1835 Кбит/сек
    Аудио: AC-3, 44,1 КГц, 192 Кбит/сек, 2 канала: Front: L R

    MediaInfo

    Формат : AVI
    Формат/Информация : Audio Video Interleave
    Размер файла : 1,38 Гбайт
    Продолжительность : 1 ч. 36 м.
    Общий поток : 2037 Кбит/сек
    Программа кодирования : VirtualDubMod 1.5.10.3 | www.virtualdub-fr.org || (build 2550/release)
    Библиотека кодирования : VirtualDub build 35390/release
    Видео
    Идентификатор : 0
    Формат : MPEG-4 Visual
    Профиль формата : Advanced Simple@L5
    Параметр BVOP формата : 1
    Параметр QPel формата : Нет
    Параметр GMC формата : Без точки перехода
    Параметр матрицы формата : Выборочная
    Идентификатор кодека : XVID
    Идентификатор кодека/Подсказка : XviD
    Продолжительность : 1 ч. 36 м.
    Битрейт : 1835 Кбит/сек
    Ширина : 720 пикселей
    Высота : 304 пикселя
    Соотношение сторон : 2,35:1
    Частота кадров : 23,976 кадра/сек
    Цветовое пространство : YUV
    Субдискретизация насыщенности : 4:2:0
    Битовая глубина : 8 бит
    Тип развёртки : Прогрессивная
    Метод сжатия : С потерями
    Бит/(Пиксели*Кадры) : 0.350
    Размер потока : 1,24 Гбайт (90%)
    Библиотека кодирования : XviD 73
    Аудио
    Идентификатор : 1
    Формат : AC-3
    Формат/Информация : Audio Coding 3
    Расширение режима : CM (complete main)
    Параметр Endianness формата : Big
    Идентификатор кодека : 2000
    Продолжительность : 1 ч. 36 м.
    Вид битрейта : Постоянный
    Битрейт : 192 Кбит/сек
    Каналы : 2 канала
    Расположение каналов : Front: L R
    Частота : 44,1 КГц
    Битовая глубина : 16 бит
    Метод сжатия : С потерями
    Размер потока : 133 Мбайт (9%)
    Выравнивание : Разделение по промежуткам
    Продолжительность промежутка : 42 мс. (1,00 видеокадр)
    Время предзагрузки промежутка : 500 мс.

    Скриншот c названием фильма

    Скриншоты






    Скачать .torrent

    Скачать торрент-файл бесплатно и на максимальной скорости!

    Как скачивать? · Что такое торрент? · Рейтинг и ограничения

    !ВНИМАНИЕ!
    Сайт не распространяет и не хранит электронные версии произведений, а занимается лишь лишь предоставлением доступа к создаваемому пользователями каталогу ссылок на торрент-файлы, которые содержат только списки хеш-сумм, убедительная просьба с жалобами обращаться напрямую к пользователю. Файлы для обмена на трекере предоставлены пользователями сайта, и администрация не несёт ответственности за их содержание. Просьба не заливать файлы, защищенные авторскими правами, а также файлы нелегального содержания!


    _________________
    [Профиль] [ЛС]
    Показать сообщения:    
    Ответить на тему

    Текущее время: Сегодня, в 22:27

    Часовой пояс: GMT + 2



    Вы не можете начинать темы
    Вы не можете отвечать на сообщения
    Вы не можете редактировать свои сообщения
    Вы не можете удалять свои сообщения
    Вы не можете голосовать в опросах
    Вы не можете прикреплять файлы к сообщениям
    Вы не можете скачивать файлы