BitTorrentTracker PerecTracker.org
BitTorrentTracker PerecTracker.org
    
Регистрация  ·  Вход
 
 · 
Забыли пароль?

  • Зеркала 2 / Mirrors 2 (Виктор Гарсия / Victor Garcia) [2010 г., ужасы, триллер, детектив, DVDRip] VO + original (eng)

    Ответить на тему
     
    Автор Сообщение

    -sasha2006

    Создавать темы 06-Апр-2011 20:42

           

    [Цитировать]

    Зеркала 2 / Mirrors 2-Страна: США
    Жанр: Ужасы, триллер, детектив
    Год выпуска: 2010
    Продолжительность: 01:26:29
    Перевод: Любительский (Одноголосый) закадровый)
    Cубтитры: нет
    Оригинальная аудиодорожка: английский
    Режиссер: Виктор Гарсия / Víctor García
    премьера (мир)............................5 октября 2010
    В ролях: Ник Стал, Уильям Кэтт, Эммануэль Вожье, Лоуренс Тернер, Стефани Онор, Кристи Карлсон Романо, Джон Дэвис, Моника Акоста, Грант Кейс, Thomas C. Daniel

    Описание: Макс, выздоравливающий после травмирующего несчастного случая, устраивается на работу ночным охранником. Он начинает видеть глазами молодой таинственной женщины, отражающейся в зеркале магазина.
    Качество видео: DVDRip ///СОВМЕСТИМО С БЫТОВЫМИ ПЛЕЕРАМИ///
    Формат видео: AVI
    Видео: 624x352 (1.77:1), 25 fps, XviD build 50 ~995 kbps avg, 0.18 bit/pixel
    Аудио 1: 48 kHz, MPEG Layer 3, 2 ch, ~128.00 kbps avg ]Rus
    Аудио 2: 48 kHz, MPEG Layer 3, 2 ch, ~128.00 kbps avg Eng (Отдельным файлом)

    MediaInfo

    General
    Complete name : D:\Mirrors 2.avi
    Format : AVI
    Format/Info : Audio Video Interleave
    File size : 701 MiB
    Duration : 1h 26mn
    Overall bit rate : 1 133 Kbps
    Writing application : VirtualDubMod 1.5.10.2 (build 2540/release)
    Writing library : VirtualDubMod build 2540/release
    Video
    ID : 0
    Format : MPEG-4 Visual
    Format profile : Advanced Simple@L5
    Format settings, BVOP : Yes
    Format settings, QPel : No
    Format settings, GMC : No warppoints
    Format settings, Matrix : Default (MPEG)
    Codec ID : XVID
    Codec ID/Hint : XviD
    Duration : 1h 26mn
    Bit rate : 995 Kbps
    Width : 624 pixels
    Height : 352 pixels
    Display aspect ratio : 16:9
    Frame rate : 25.000 fps
    Resolution : 8 bits
    Colorimetry : 4:2:0
    Scan type : Progressive
    Bits/(Pixel*Frame) : 0.181
    Stream size : 616 MiB (88%)
    Writing library : XviD 1.2.1 (UTC 2008-12-04)
    Audio
    ID : 1
    Format : MPEG Audio
    Format version : Version 1
    Format profile : Layer 3
    Codec ID : 55
    Codec ID/Hint : MP3
    Duration : 1h 26mn
    Bit rate mode : Constant
    Bit rate : 128 Kbps
    Channel(s) : 2 channels
    Sampling rate : 48.0 KHz
    Stream size : 79.2 MiB (11%)
    Alignment : Aligned on interleaves
    Interleave, duration : 40 ms (1.00 video frame)
    Interleave, preload duration : 504 ms
    Writing library : LAME3.98r
    Encoding settings : -m s -V 4 -q 2 -lowpass 17 -b 128

    Скриншоты:

    Скачать .torrent

    Скачать торрент-файл бесплатно и на максимальной скорости!

    Как скачивать? · Что такое торрент? · Рейтинг и ограничения

    !ВНИМАНИЕ!
    Сайт не распространяет и не хранит электронные версии произведений, а занимается лишь лишь предоставлением доступа к создаваемому пользователями каталогу ссылок на торрент-файлы, которые содержат только списки хеш-сумм, убедительная просьба с жалобами обращаться напрямую к пользователю. Файлы для обмена на трекере предоставлены пользователями сайта, и администрация не несёт ответственности за их содержание. Просьба не заливать файлы, защищенные авторскими правами, а также файлы нелегального содержания!


    _________________

    ░▒▓█▀▄▀▄▀▄█▓▒░
    [Профиль] [ЛС]
    Показать сообщения:    
    Ответить на тему

    Текущее время: Сегодня, в 16:20

    Часовой пояс: GMT + 2



    Вы не можете начинать темы
    Вы не можете отвечать на сообщения
    Вы не можете редактировать свои сообщения
    Вы не можете удалять свои сообщения
    Вы не можете голосовать в опросах
    Вы не можете прикреплять файлы к сообщениям
    Вы не можете скачивать файлы