BitTorrentTracker PerecTracker.org
BitTorrentTracker PerecTracker.org
    
Регистрация  ·  Вход
 
 · 
Забыли пароль?

  • Совесть (Юрий Кавтарадзе) [1974, драма, детектив, DVB]

    Ответить на тему
     
    Автор Сообщение

    Light

    Создавать темы 14-Мар-2015 19:55

           

    [Цитировать]

    Совесть (2 серии)
    14.03.15 торрент обновлен. В связи с повторной трансляцией меняю видео. Битрейт 4425 против 3111, преимущества на сравнении, серии 3-5 будут после 21:00 МСК
    Жанр: драма, детектив
    Год выпуска: 1974
    Продолжительность: 01:23:33 + 01:22:29 + 01:25:00 + 01:14:10 + 01:25:42
    Режиссёр: Юрий Кавтарадзе
    В ролях: Дальвин Щербаков, Александр Мартынов, Борис Кудрявцев, Всеволод Сафонов, Анатолий Ромашин, Валентин Буров, Паули Ринне, Вячеслав Кутаков, Людмила Давыдова, Никита Подгорный, Лариса Лужина, Константин Захаров, Борис Химичев, Феликс Яворский, Герман Полосков, Радий Афанасьев, Владимир Протасенко, Олег Мокшанцев, Раиса Куркина, Сергей Савченко, Владимир Пицек, Пётр Щербаков, Валерий Анисимов, Эмилия Мильтон, Сергей Приселков, Александр Назаров, Айварс Линис, Дмитрий Франько, Светлана Жгун, Виталий Леонов, Карп Мукасян, Валерий Афанасьев, Николай Погодин, Петр Любешкин, Павел Махотин, Владимир Талашко, Юрий Прохоров, Борис Беляков, Светлана Агеева, Александр Фадеев, Юрий Боголюбов, Лидия Говорухина, Евгений Жуков, Альберт Иричев, Надежда Каратаева, Елена Мартынова, Алла Будницкая, Нина Емельянова, Нелли Лазарева (Зиновьева), Елена Максимова, Виктор Маркин, Игорь Безяев, Николай Парфёнов, Галина Попова, Владимир Диянов, Велта Лине, Нина Тер-Осипян, Миервалдис Озолиньш, Леонид Елинсон, Василий Корнуков, Николай Смирнов, Артем Карапетян, Юрис Леяскалнс, Николай Сморчков, Юрий Сорокин, Артур Нищёнкин, Виктор Уральский, Геннадий Полока, Евгения Опалова, Алла Ролик, Владислав Цыганков, Александр Дегтярь, Раднэр Муратов, Владимир Рудый, Павел Тимченко, Юрий Заев, Александр Вокач, Валентина Карева, Юрий Киреев
    Описание: Из фашистского концлагеря в конце войны бегут трое советских военнопленных. Им помогает и бежит вместе с ними один из охранников. Спустя много лет этот бывший немецкий прихвостень всё еще жив. Он разрабатывает и начинает приводить в действие некий план...
    Доп. информация: Запись потока *.ts со спутника Ямал 402, 55° в.д., ремукс в *.mpg программой VideoReDo.
    Качество видео: DVB
    Формат видео: MPEG-PS
    Видео: MPEG2 Video, 720(768)x576 (4:3), 25,000 кадров/сек, 4425 Кбит/сек
    Аудио: MPEG Audio, 48,0 КГц, 192 Кбит/сек, 2 канала

    MediaInfo

    General
    Complete name : D:\Torrent\Совесть\СОВЕСТЬ 1 (Zvezda 55).mpg
    Format : MPEG-PS
    File size : 2.75 GiB
    Duration : 1h 23mn
    Overall bit rate mode : Variable
    Overall bit rate : 4 710 Kbps
    Video
    ID : 224 (0xE0)
    Format : MPEG Video
    Format version : Version 2
    Format profile : Main@Main
    Format settings, BVOP : Yes
    Format settings, Matrix : Custom
    Duration : 1h 23mn
    Bit rate mode : Variable
    Bit rate : 4 425 Kbps
    Maximum bit rate : 15.0 Mbps
    Width : 720 pixels
    Height : 576 pixels
    Display aspect ratio : 4:3
    Frame rate : 25.000 fps
    Standard : PAL
    Color space : YUV
    Chroma subsampling : 4:2:0
    Bit depth : 8 bits
    Scan type : Interlaced
    Scan order : Top Field First
    Compression mode : Lossy
    Bits/(Pixel*Frame) : 0.427
    Stream size : 2.58 GiB (94%)
    Audio
    ID : 192 (0xC0)
    Format : MPEG Audio
    Format version : Version 1
    Format profile : Layer 2
    Duration : 1h 23mn
    Bit rate mode : Constant
    Bit rate : 192 Kbps
    Channel(s) : 2 channels
    Sampling rate : 48.0 KHz
    Compression mode : Lossy
    Delay relative to video : 15ms
    Stream size : 115 MiB (4%)
    General
    Complete name : D:\Torrent\Совесть\СОВЕСТЬ 2 (Zvezda 55).mpg
    Format : MPEG-PS
    File size : 2.71 GiB
    Duration : 1h 22mn
    Overall bit rate mode : Variable
    Overall bit rate : 4 711 Kbps
    Video
    ID : 224 (0xE0)
    Format : MPEG Video
    Format version : Version 2
    Format profile : Main@Main
    Format settings, BVOP : Yes
    Format settings, Matrix : Custom
    Duration : 1h 22mn
    Bit rate mode : Variable
    Bit rate : 4 425 Kbps
    Maximum bit rate : 15.0 Mbps
    Width : 720 pixels
    Height : 576 pixels
    Display aspect ratio : 4:3
    Frame rate : 25.000 fps
    Standard : PAL
    Color space : YUV
    Chroma subsampling : 4:2:0
    Bit depth : 8 bits
    Scan type : Interlaced
    Scan order : Top Field First
    Compression mode : Lossy
    Bits/(Pixel*Frame) : 0.427
    Stream size : 2.55 GiB (94%)
    Audio
    ID : 192 (0xC0)
    Format : MPEG Audio
    Format version : Version 1
    Format profile : Layer 2
    Duration : 1h 22mn
    Bit rate mode : Constant
    Bit rate : 192 Kbps
    Channel(s) : 2 channels
    Sampling rate : 48.0 KHz
    Compression mode : Lossy
    Delay relative to video : 15ms
    Stream size : 113 MiB (4%)

    Скриншоты

    Скачать .torrent

    Скачать торрент-файл бесплатно и на максимальной скорости!

    Как скачивать? · Что такое торрент? · Рейтинг и ограничения

    !ВНИМАНИЕ!
    Сайт не распространяет и не хранит электронные версии произведений, а занимается лишь лишь предоставлением доступа к создаваемому пользователями каталогу ссылок на торрент-файлы, которые содержат только списки хеш-сумм, убедительная просьба с жалобами обращаться напрямую к пользователю. Файлы для обмена на трекере предоставлены пользователями сайта, и администрация не несёт ответственности за их содержание. Просьба не заливать файлы, защищенные авторскими правами, а также файлы нелегального содержания!


    _________________
    [Профиль] [ЛС]
    Показать сообщения:    
    Ответить на тему

    Текущее время: Сегодня, в 01:25

    Часовой пояс: GMT + 2



    Вы не можете начинать темы
    Вы не можете отвечать на сообщения
    Вы не можете редактировать свои сообщения
    Вы не можете удалять свои сообщения
    Вы не можете голосовать в опросах
    Вы не можете прикреплять файлы к сообщениям
    Вы не можете скачивать файлы