BitTorrentTracker PerecTracker.org
BitTorrentTracker PerecTracker.org
    
Регистрация  ·  Вход
 
 · 
Забыли пароль?

  • Карнавальная ночь (Эльдар Рязанов) [1956 г., комедия, HDRip]

    Ответить на тему
     
    Автор Сообщение

    Light

    Создавать темы 14-Мар-2015 11:31

           

    [Цитировать]

    -Карнавальная ночь--Год выпуска: 1956Жанр: комедияПродолжительность: 01:15:31--Режиссер:Эльдар Рязанов-В ролях:Людмила Гурченко, Игорь Ильинский, Юрий Белов, Георгий Куликов, Сергей Филиппов, Ольга Власова, Андрей Тутышкин, Тамара Носова, Геннадий Юдин, Борис Петкер, Владимир Зельдин, Валентин Брылеев-Описание:
    Новый директор клуба Огурцов, бюрократ и невежа, активно вмешивается в подготовку новогоднего концерта, требуя убрать из программы все остроумные и талантливые выступления. Организаторы вечера в отчаянии. Но их желание и умение веселиться помогают ”обезвредить” Огурцова, введя его самого в канву программы, как сатирического персонажа, о чем он сам и не подозревает. И концерт и бал удались на славу. Вместе с общественными решились и личные задачи: наконец-то Грише удалось объясниться с Леной...-Знаменитая новогодняя комедия - творческий дебют молодого режиссёра Эльдара Рязанова, покорившего своим фильмом весь Советский Союз. Фильм сразу же был разобран на цитаты, юная Людмила Гурченко тотчас же стала знаменитой, а песни "Пять минут" и "Песенка о хорошем настроении" стали народными. Этот фильм стал одним из символов Нового Года, эстафету у которого через двадцать лет перехватила знаменитая "Ирония судьбы" всё того же Эльдара Рязанова. Красивая, добрая, весёлая и немного наивная советская музыкальная комедия - один из шедевров советского кинематографа и символов эпохи
    --Дополнительная информация:- -Сэмпл Рип совместим с бытовыми DVD-проигрывателями.--Качество видео: HDRip (Исходник: BDRip 1080p )
    Формат видео: AVI
    Видео: XviD build 73, 640x464 (4:3), 23.976 fps, ~1245 kbps, 0.175 bit/pixel
    Аудио: MPEG Layer 3, 2 ch, 48 kHz, 128.00 kbps avg-

    Скриншоты



    MediaInfo

    General
    Complete name : \Karnavalnaya_noch_(1956).HDRip.mp3_[All.Films][RG].avi
    Format : AVI
    Format/Info : Audio Video Interleave
    File size : 747 MiB
    Duration : 1h 15mn
    Overall bit rate : 1 382 Kbps
    Movie name : Карнавальная ночь (1956) HDRip [All.Films][RG]
    Director : <VIRUS> | [rutracker.org]
    Writing application : VirtualDubMod 1.5.10.3 | www.virtualdub-fr.org || (build 2550/release)
    Video
    ID : 0
    Format : MPEG-4 Visual
    Format profile : Advanced Simple@L5
    Format settings, BVOP : 2
    Format settings, QPel : No
    Format settings, GMC : No warppoints
    Format settings, Matrix : Custom
    Codec ID : XVID
    Codec ID/Hint : XviD
    Duration : 1h 15mn
    Bit rate : 1 245 Kbps
    Width : 640 pixels
    Height : 464 pixels
    Display aspect ratio : 1.379
    Frame rate : 23.976 fps
    Color space : YUV
    Chroma subsampling : 4:2:0
    Bit depth : 8 bits
    Scan type : Progressive
    Compression mode : Lossy
    Bits/(Pixel*Frame) : 0.175
    Stream size : 673 MiB (90%)
    Writing library : XviD 73
    Audio
    ID : 1
    Format : MPEG Audio
    Format version : Version 1
    Format profile : Layer 3
    Codec ID : 55
    Codec ID/Hint : MP3
    Duration : 1h 15mn
    Bit rate mode : Constant
    Bit rate : 128 Kbps
    Channel(s) : 2 channels
    Sampling rate : 48.0 KHz
    Compression mode : Lossy
    Stream size : 69.1 MiB (9%)
    Alignment : Aligned on interleaves
    Interleave, duration : 42 ms (1.00 video frame)
    Interleave, preload duratio : 504 ms
    Writing library : LAME3.99r
    Encoding settings : -m s -V 4 -q 0 -lowpass 17 -b 128
    Скачать .torrent

    Скачать торрент-файл бесплатно и на максимальной скорости!

    Как скачивать? · Что такое торрент? · Рейтинг и ограничения

    !ВНИМАНИЕ!
    Сайт не распространяет и не хранит электронные версии произведений, а занимается лишь лишь предоставлением доступа к создаваемому пользователями каталогу ссылок на торрент-файлы, которые содержат только списки хеш-сумм, убедительная просьба с жалобами обращаться напрямую к пользователю. Файлы для обмена на трекере предоставлены пользователями сайта, и администрация не несёт ответственности за их содержание. Просьба не заливать файлы, защищенные авторскими правами, а также файлы нелегального содержания!


    _________________
    [Профиль] [ЛС]
    Показать сообщения:    
    Ответить на тему

    Текущее время: Сегодня, в 02:32

    Часовой пояс: GMT + 2



    Вы не можете начинать темы
    Вы не можете отвечать на сообщения
    Вы не можете редактировать свои сообщения
    Вы не можете удалять свои сообщения
    Вы не можете голосовать в опросах
    Вы не можете прикреплять файлы к сообщениям
    Вы не можете скачивать файлы