BitTorrentTracker PerecTracker.org
BitTorrentTracker PerecTracker.org
    
Регистрация  ·  Вход
 
 · 
Забыли пароль?

  • Три сестры Т / Trzy Siostry T (Мацей Ковалевский / Maciej Kowalewski) [2011, Польша, черная комедия, триллер, психологический, TVRip] VO

    Ответить на тему
     
    Автор Сообщение

    Light

    Создавать темы 14-Мар-2015 11:31

           

    [Цитировать]

    Три сестры Т / Trzy Siostry T
    Страна: Польша
    Жанр: черная комедия, триллер, психологический
    Год выпуска: 2011
    Продолжительность: 01:24:32-Перевод: Одноголосый закадровый
    Cубтитры: нет
    Оригинальная аудиодорожка: нет-Режиссер: Мацей Ковалевский / Maciej Kowalewski-В ролях: Рафал Мохр, Богуслава Шуберт, Малгожата Рожнятовская, Ева Шикульская, Наталья Шигуля, Изабела Куна-Описание: 35-летний Роберт вынужден жить со своими гиперопекающими матерью и ее двумя сестрами. Вскоре становится ясно, что все три - сумасшедшие убийцы.-Сэмпл: https://www.sendspace.com/file/5bb9b8
    Качество видео: TVRip
    Формат видео: AVI-Видео: XviD, 640х360, 16:9, 25,000 кадров/сек, 1183 Кбит/сек
    Аудио: MP3, 44,1 КГц, 192 Кбит/сек, 2 канала

    MediaInfo

    Общее
    Полное имя : Trzy siostry T.RU.avi
    Формат : AVI
    Формат/Информация : Audio Video Interleave
    Размер файла : 837 Мбайт
    Продолжительность : 1 ч. 24 м.
    Общий поток : 1384 Кбит/сек
    Видео
    Идентификатор : 0
    Формат : MPEG-4 Visual
    Профиль формата : Advanced Simple@L5
    Параметр BVOP формата : 2
    Параметр QPel формата : Да
    Параметр GMC формата : Без точки перехода
    Параметр матрицы формата : Выборочная
    Идентификатор кодека : XVID
    Идентификатор кодека/Подсказка : XviD
    Продолжительность : 1 ч. 24 м.
    Битрейт : 1182 Кбит/сек
    Ширина : 640 пикселей
    Высота : 360 пикселей
    Соотношение сторон : 16:9
    Частота кадров : 25,000 кадров/сек
    Цветовое пространство : YUV
    Субдискретизация насыщенности : 4:2:0
    Битовая глубина : 8 бит
    Тип развёртки : Прогрессивная
    Метод сжатия : С потерями
    Бит/(Пиксели*Кадры) : 0.205
    Размер потока : 715 Мбайт (85%)
    Библиотека кодирования : XviD 73
    Аудио
    Идентификатор : 1
    Формат : MPEG Audio
    Версия формата : Version 1
    Профиль формата : Layer 3
    Идентификатор кодека : 55
    Идентификатор кодека/Подсказка : MP3
    Продолжительность : 1 ч. 24 м.
    Вид битрейта : Постоянный
    Битрейт : 192 Кбит/сек
    Каналы : 2 канала
    Частота : 44,1 КГц
    Метод сжатия : С потерями
    Размер потока : 116 Мбайт (14%)
    Выравнивание : Разделение по промежуткам
    Продолжительность промежутка : 40 мс. (1,00 видеокадр)
    Время предзагрузки промежутка : 500 мс.
    Библиотека кодирования : LAME3.99r
    Настройки программы : -m s -V 4 -q 3 -lowpass 18.6 -b 192

    Скриншот c названием фильма

    Скриншоты

    Скачать .torrent

    Скачать торрент-файл бесплатно и на максимальной скорости!

    Как скачивать? · Что такое торрент? · Рейтинг и ограничения

    !ВНИМАНИЕ!
    Сайт не распространяет и не хранит электронные версии произведений, а занимается лишь лишь предоставлением доступа к создаваемому пользователями каталогу ссылок на торрент-файлы, которые содержат только списки хеш-сумм, убедительная просьба с жалобами обращаться напрямую к пользователю. Файлы для обмена на трекере предоставлены пользователями сайта, и администрация не несёт ответственности за их содержание. Просьба не заливать файлы, защищенные авторскими правами, а также файлы нелегального содержания!


    _________________
    [Профиль] [ЛС]
    Показать сообщения:    
    Ответить на тему

    Текущее время: Сегодня, в 22:34

    Часовой пояс: GMT + 2



    Вы не можете начинать темы
    Вы не можете отвечать на сообщения
    Вы не можете редактировать свои сообщения
    Вы не можете удалять свои сообщения
    Вы не можете голосовать в опросах
    Вы не можете прикреплять файлы к сообщениям
    Вы не можете скачивать файлы