BitTorrentTracker PerecTracker.org
BitTorrentTracker PerecTracker.org
    
Регистрация  ·  Вход
 
 · 
Забыли пароль?

  • Звездочёт (Анатолий Тютюнник) (3 серии) [1986, приключения, DVB]

    Ответить на тему
     
    Автор Сообщение

    Light

    Создавать темы 13-Мар-2015 22:57

           

    [Цитировать]

    Звездочёт (3 серии)
    Жанр: приключения
    Год выпуска: 1986
    Продолжительность: 01:02:35 + 01:01:38 + 01:01:18
    Режиссёр: Анатолий Тютюнник
    В ролях: Альбина Матвеева, Игорь Ледогоров, Георгий Жжёнов, Викторас Шинкарюкас, Георгий Дрозд, Сергей Юрский, Леонид Ярмольник, Ромуальдас Раманаускас, Александр Вокач, Игорь Богодух, Гедиминас Гирдвайнис, Ирина Резникова, Валентинас Масальскис, Игорь Ливанов, И. Михайлова, Сергей Кошонин, Виктор Черненко, Балис Юшкявичюс, Валентин Никулин, Александр Франскевич-Лайе, Вадим Лобанов
    Описание: По мотивам романа А.Марченко «Звездочеты».
    Германия, тридцатые годы. Советской разведчице Ярославе Соболевой (она же Софи Вайнерт) ценой собственной жизни удается уничтожить запасы нового вида бактериологического оружия.
    Доп. информация: Запись потока *.ts со спутника Ямал 202, 49° в.д., ремукс в *.mpg программой VideoReDo.
    Качество видео: DVB
    Формат видео: MPEG-PS
    Видео: MPEG Video, 704х576 (4:3), 25,000 кадр/сек, 4840 Кбит/сек
    Аудио: MPEG Audio, 48,0 КГц, 2 канала, 192 Кбит/сек

    MediaInfo

    General
    Complete name : C:\ЗВЕЗДОЧЕТ 1 (ZVEZDA 49).mpg
    Format : MPEG-PS
    File size : 2.23 GiB
    Duration : 1h 2mn
    Overall bit rate mode : Variable
    Overall bit rate : 5 095 Kbps
    Video
    ID : 224 (0xE0)
    Format : MPEG Video
    Format version : Version 2
    Format profile : Main@Main
    Format settings, BVOP : Yes
    Format settings, Matrix : Custom
    Format settings, GOP : M=1, N=26
    Duration : 1h 2mn
    Bit rate mode : Variable
    Bit rate : 4 840 Kbps
    Width : 704 pixels
    Height : 576 pixels
    Display aspect ratio : 4:3
    Frame rate : 25.000 fps
    Standard : PAL
    Color space : YUV
    Chroma subsampling : 4:2:0
    Bit depth : 8 bits
    Scan type : Interlaced
    Scan order : Top Field First
    Compression mode : Lossy
    Bits/(Pixel*Frame) : 0.477
    Stream size : 2.10 GiB (94%)
    Audio
    ID : 192 (0xC0)
    Format : MPEG Audio
    Format version : Version 1
    Format profile : Layer 2
    Duration : 1h 2mn
    Bit rate mode : Constant
    Bit rate : 192 Kbps
    Channel(s) : 2 channels
    Sampling rate : 48.0 KHz
    Compression mode : Lossy
    Delay relative to video : 12ms
    Stream size : 86.0 MiB (4%)
    General
    Complete name : C:\ЗВЕЗДОЧЕТ 2 (ZVEZDA 49).mpg
    Format : MPEG-PS
    File size : 2.19 GiB
    Duration : 1h 1mn
    Overall bit rate mode : Variable
    Overall bit rate : 5 095 Kbps
    Video
    ID : 224 (0xE0)
    Format : MPEG Video
    Format version : Version 2
    Format profile : Main@Main
    Format settings, BVOP : Yes
    Format settings, Matrix : Custom
    Duration : 1h 1mn
    Bit rate mode : Variable
    Bit rate : 4 840 Kbps
    Width : 704 pixels
    Height : 576 pixels
    Display aspect ratio : 4:3
    Frame rate : 25.000 fps
    Standard : PAL
    Color space : YUV
    Chroma subsampling : 4:2:0
    Bit depth : 8 bits
    Scan type : Interlaced
    Scan order : Top Field First
    Compression mode : Lossy
    Bits/(Pixel*Frame) : 0.477
    Stream size : 2.07 GiB (94%)
    Audio
    ID : 192 (0xC0)
    Format : MPEG Audio
    Format version : Version 1
    Format profile : Layer 2
    Duration : 1h 1mn
    Bit rate mode : Constant
    Bit rate : 192 Kbps
    Channel(s) : 2 channels
    Sampling rate : 48.0 KHz
    Compression mode : Lossy
    Delay relative to video : 20ms
    Stream size : 84.7 MiB (4%)
    General
    Complete name : C:\ЗВЕЗДОЧЕТ 3 (ZVEZDA 49).mpg
    Format : MPEG-PS
    File size : 2.18 GiB
    Duration : 1h 1mn
    Overall bit rate mode : Variable
    Overall bit rate : 5 095 Kbps
    Video
    ID : 224 (0xE0)
    Format : MPEG Video
    Format version : Version 2
    Format profile : Main@Main
    Format settings, BVOP : Yes
    Format settings, Matrix : Custom
    Format settings, GOP : M=1, N=23
    Duration : 1h 1mn
    Bit rate mode : Variable
    Bit rate : 4 840 Kbps
    Width : 704 pixels
    Height : 576 pixels
    Display aspect ratio : 4:3
    Frame rate : 25.000 fps
    Standard : PAL
    Color space : YUV
    Chroma subsampling : 4:2:0
    Bit depth : 8 bits
    Scan type : Interlaced
    Scan order : Top Field First
    Compression mode : Lossy
    Bits/(Pixel*Frame) : 0.477
    Stream size : 2.06 GiB (94%)
    Audio
    ID : 192 (0xC0)
    Format : MPEG Audio
    Format version : Version 1
    Format profile : Layer 2
    Duration : 1h 1mn
    Bit rate mode : Constant
    Bit rate : 192 Kbps
    Channel(s) : 2 channels
    Sampling rate : 48.0 KHz
    Compression mode : Lossy
    Delay relative to video : 12ms
    Stream size : 84.2 MiB (4%)

    Скриншоты

    Скачать .torrent

    Скачать торрент-файл бесплатно и на максимальной скорости!

    Как скачивать? · Что такое торрент? · Рейтинг и ограничения

    !ВНИМАНИЕ!
    Сайт не распространяет и не хранит электронные версии произведений, а занимается лишь лишь предоставлением доступа к создаваемому пользователями каталогу ссылок на торрент-файлы, которые содержат только списки хеш-сумм, убедительная просьба с жалобами обращаться напрямую к пользователю. Файлы для обмена на трекере предоставлены пользователями сайта, и администрация не несёт ответственности за их содержание. Просьба не заливать файлы, защищенные авторскими правами, а также файлы нелегального содержания!


    _________________
    [Профиль] [ЛС]
    Показать сообщения:    
    Ответить на тему

    Текущее время: Сегодня, в 08:05

    Часовой пояс: GMT + 2



    Вы не можете начинать темы
    Вы не можете отвечать на сообщения
    Вы не можете редактировать свои сообщения
    Вы не можете удалять свои сообщения
    Вы не можете голосовать в опросах
    Вы не можете прикреплять файлы к сообщениям
    Вы не можете скачивать файлы