BitTorrentTracker PerecTracker.org
BitTorrentTracker PerecTracker.org
    
Регистрация  ·  Вход
 
 · 
Забыли пароль?

  • Любить... (Михаил Калик, Инна Туманян) [1968, 1992, Драма, TVRip]

    Ответить на тему
     
    Автор Сообщение

    Light

    Создавать темы 13-Мар-2015 22:57

           

    [Цитировать]

    Любить...
    (новая редакция 1992 г.)
    Жанр: Драма
    Год выпуска: 1968
    Продолжительность: 01:10:33
    Производство: Молдова-филм; Киностудия им.М. Горького, студия "Зодиак", "Сиртей Михаил Калик" - новая редакция
    Страна: СССР
    Режиссёр: Михаил Калик, Инна (Инесса) Туманян
    Сценаристы: Михаил Калик, Авенир Зак, Исай Кузнецов
    Операторы: Дмитрий Моторный, Аркадий Кольцатый
    Композитор: Микаэл Таривердиев
    Художники: Станислав Булгаков, Аурелия Роман
    В ролях: Алексей Эйбоженко — парень на вечеринке
    Марианна Вертинская — девушка на вечеринке
    Игорь Кваша — Игорь, гость на вечеринке
    Екатерина Васильева — подруга Игоря
    Андрей Миронов — парень на вечеринке
    Анастасия Вознесенская — девушка с глобусом
    Валентин Никулин — одинокий гость
    Алиса Фрейндлих — Аня
    Сергей Гурзо — Сергей
    Наталия Четверикова — девушка Сергея
    Светлана Светличная — северянка
    Лев Круглый — москвич
    Наум Кавуновский — администратор в гостинице
    Елизавета Никищихина — дворник
    Антонина Лефтий — Нуца
    Георге Швитки — Мирча
    Михаил Бадикяну — Морару
    Татьяна Журавлёва — девушка в кафе (в белом берете)
    Описание: Четыре киноновеллы о любви по мотивам рассказов И.Друцэ, А.Зака, И.Кузнецова, Ю.Казакова, В.Сапожникова объединены в лирическую киноповесть кадрами хроники конца 60-х годов.
    Режиссер хроники Инна Туманян берет интервью у людей на улицах и задает один и тот же "простенький" вопрос, над которым человечество ломает голову уже миллион лет: "Что значит любить?". На него пытаются ответить и безымянные прохожие, и священник Александр Мень, чьи размышления перед кинокамерой складываются в своеобразный философский монолог.
    Фильм был частично восстановлен и доработан режиссером М. Каликом лишь в 1992 году в Израиле, куда режиссер эмигрировал.
    Качество видео: TVRip
    Формат видео: AVI
    Видео: 720x400 (1,8:1) 25fps DivX5 2.2Mbps 0.306bit/pixel
    Аудио: 48KHz Mono 128Kbps mp3 1ch
    sample: http://rusfolder.com/42971904

    Сравнение с DVB-раздачей

    DVB-раздача

    эта раздача

    MediaInfo

    General
    Complete name : D:\! DOWNLOADS\Видео\Kalik.Ljubit.1966.avi
    Format : AVI
    Format/Info : Audio Video Interleave
    File size : 1.15 GiB
    Duration : 1h 10mn
    Overall bit rate : 2 338 Kbps
    Writing application : VirtualDubMod 1.5.10.2 (build 2542/release)
    Writing library : VirtualDubMod build 2542/release
    Video
    ID : 0
    Format : MPEG-4 Visual
    Format settings, BVOP : Yes
    Format settings, QPel : No
    Format settings, GMC : No warppoints
    Format settings, Matrix : Default (H.263)
    Codec ID : DX50
    Codec ID/Hint : DivX 5
    Duration : 1h 10mn
    Bit rate : 2 200 Kbps
    Width : 720 pixels
    Height : 400 pixels
    Display aspect ratio : 5:4
    Original display aspect ratio : 16:9
    Frame rate : 25.000 fps
    Color space : YUV
    Chroma subsampling : 4:2:0
    Bit depth : 8 bits
    Scan type : Progressive
    Compression mode : Lossy
    Bits/(Pixel*Frame) : 0.306
    Stream size : 1.08 GiB (94%)
    Writing library : DivX 6.8.0 (UTC 2007-12-04)
    Audio
    ID : 1
    Format : MPEG Audio
    Format version : Version 1
    Format profile : Layer 3
    Codec ID : 55
    Codec ID/Hint : MP3
    Duration : 1h 10mn
    Bit rate mode : Constant
    Bit rate : 128 Kbps
    Channel count : 1 channel
    Sampling rate : 48.0 KHz
    Compression mode : Lossy
    Stream size : 64.6 MiB (5%)
    Alignment : Aligned on interleaves
    Interleave, duration : 40 ms (1.00 video frame)
    Interleave, preload duration : 504 ms
    Writing library : LAME3.97
    Encoding settings : -m m -V 4 -q 0 -b 128

    Скриншоты








    Скачать .torrent

    Скачать торрент-файл бесплатно и на максимальной скорости!

    Как скачивать? · Что такое торрент? · Рейтинг и ограничения

    !ВНИМАНИЕ!
    Сайт не распространяет и не хранит электронные версии произведений, а занимается лишь лишь предоставлением доступа к создаваемому пользователями каталогу ссылок на торрент-файлы, которые содержат только списки хеш-сумм, убедительная просьба с жалобами обращаться напрямую к пользователю. Файлы для обмена на трекере предоставлены пользователями сайта, и администрация не несёт ответственности за их содержание. Просьба не заливать файлы, защищенные авторскими правами, а также файлы нелегального содержания!


    _________________
    [Профиль] [ЛС]
    Показать сообщения:    
    Ответить на тему

    Текущее время: Сегодня, в 11:46

    Часовой пояс: GMT + 2



    Вы не можете начинать темы
    Вы не можете отвечать на сообщения
    Вы не можете редактировать свои сообщения
    Вы не можете удалять свои сообщения
    Вы не можете голосовать в опросах
    Вы не можете прикреплять файлы к сообщениям
    Вы не можете скачивать файлы