Register  ·  Log in
Forgot password?

  • Любовь моя, печаль моя / Ferhat ile Şirin (Аждар Ибрагимов) [1978, Драма, экранизация, SATRip]

    Reply to topic
    Author Message


    Post 13-Mar-2015 23:57



    Любовь моя, печаль моя / Ferhat ile Şirin
    Жанр: Драма, экранизация
    Год выпуска: 1978
    Продолжительность: 1:28:08
    Режиссёр: Аждар Ибрагимов
    В ролях: Тюркан Шорай, Алла Сигалова, Фарук Пекер, Йылмаз Дуру, Армен Джигарханян, Владимир Самойлов, Анатолий Папанов, Всеволод Санаев, Адиль Искендеров, Ирина Мирошниченко, Арчил Гомиашвили
    Описание: Романтическая поэма по мотивам пьесы Н. Хикмета "Легенда о любви".
    История любви Фархада и Ширин, воспетая великими поэтами прошлого, воссоздана на экране режиссером Аждаром Ибрагимовым красочно и ярко, лирично и возвышенно. Рядом с советскими актерами Ириной Мирошниченко, Анатолием Папановым, Арменом Джигарханяном, Владимиром Самойловым и дебютанткой Аллой Сигаловой, которая исполняет роль Ширин, снимались известные турецкие актеры Тюркан Шорай, Фарук Пекер, Иылмаз Дуру.
    Доп. информация: Производство: Мосфильм, Тугра-фильм
    Качество видео: SATRip
    Формат видео: AVI
    Видео: XviD MPEG-4 , 720x304 (2.37:1) , 25 fps , 2154 kbps avg
    Аудио: AC3 , 48 kHz , 192.00 kbps avg , 2/0 (L,R) ch


    Complete name Любовь моя, печаль моя 1978.avi
    Format : AVI
    Format/Info : Audio Video Interleave
    File size : 1.45 GiB
    Duration : 1h 28mn
    Overall bit rate : 2 356 Kbps
    Writing library : VirtualDub build 35491/release
    ID : 0
    Format : MPEG-4 Visual
    Format profile : Advanced Simple@L5
    Format settings, BVOP : 2
    Format settings, QPel : No
    Format settings, GMC : No warppoints
    Format settings, Matrix : Default (H.263)
    Codec ID : XVID
    Codec ID/Hint : XviD
    Duration : 1h 28mn
    Bit rate : 2 154 Kbps
    Width : 720 pixels
    Height : 304 pixels
    Display aspect ratio : 2.35:1
    Frame rate : 25.000 fps
    Color space : YUV
    Chroma subsampling : 4:2:0
    Bit depth : 8 bits
    Scan type : Progressive
    Compression mode : Lossy
    Bits/(Pixel*Frame) : 0.394
    Stream size : 1.33 GiB (91%)
    Writing library : XviD 1.2.1 (UTC 2008-12-04)
    ID : 1
    Format : AC-3
    Format/Info : Audio Coding 3
    Mode extension : CM (complete main)
    Format settings, Endianness : Big
    Codec ID : 2000
    Duration : 1h 28mn
    Bit rate mode : Constant
    Bit rate : 192 Kbps
    Channel(s) : 2 channels
    Channel positions : Front: L R
    Sampling rate : 48.0 KHz
    Bit depth : 16 bits
    Compression mode : Lossy
    Stream size : 121 MiB (8%)
    Alignment : Aligned on interleaves
    Interleave, duration : 40 ms (1.00 video frame)
    Interleave, preload duratio : 512 ms


    Download .torrent

    Download free and at maximum speed!

    How to Download? · What is a torrent? · Ratings and Limitations

    The site does not extend and does not store electronic(digital) versions of products, and only gives access to a reference catalogue created by users on torrent-files which contain only lists of the hash-sums, the earnest entreaty, with complaints(abuse) to access directly to the user. Files for an exchange on tracker are given by users of a site, and the administration does not bear the responsibility for their maintenance. The request to not fill in the files protected by copyrights, and also files of the illegal maintenance!

    [Profile] [PM]
    Display posts from previous:    
    Reply to topic

    The time now is: Today 12:32

    All times are GMT + 3 Hours

    You cannot post new topics in this forum
    You cannot reply to topics in this forum
    You cannot edit your posts in this forum
    You cannot delete your posts in this forum
    You cannot vote in polls in this forum
    You cannot attach files in this forum
    You cannot download files in this forum