BitTorrentTracker PerecTracker.org
BitTorrentTracker PerecTracker.org
    
Регистрация  ·  Вход
 
 · 
Забыли пароль?

  • Любовь моя, печаль моя / Ferhat ile Şirin (Аждар Ибрагимов) [1978, Драма, экранизация, SATRip]

    Ответить на тему
     
    Автор Сообщение

    Light

    Создавать темы 13-Мар-2015 22:57

           

    [Цитировать]

    Любовь моя, печаль моя / Ferhat ile Şirin
    Жанр: Драма, экранизация
    Год выпуска: 1978
    Продолжительность: 1:28:08
    Режиссёр: Аждар Ибрагимов
    В ролях: Тюркан Шорай, Алла Сигалова, Фарук Пекер, Йылмаз Дуру, Армен Джигарханян, Владимир Самойлов, Анатолий Папанов, Всеволод Санаев, Адиль Искендеров, Ирина Мирошниченко, Арчил Гомиашвили
    Описание: Романтическая поэма по мотивам пьесы Н. Хикмета "Легенда о любви".
    История любви Фархада и Ширин, воспетая великими поэтами прошлого, воссоздана на экране режиссером Аждаром Ибрагимовым красочно и ярко, лирично и возвышенно. Рядом с советскими актерами Ириной Мирошниченко, Анатолием Папановым, Арменом Джигарханяном, Владимиром Самойловым и дебютанткой Аллой Сигаловой, которая исполняет роль Ширин, снимались известные турецкие актеры Тюркан Шорай, Фарук Пекер, Иылмаз Дуру.
    Доп. информация: Производство: Мосфильм, Тугра-фильм
    Семпл: https://www.sendspace.com/file/seav1f
    Качество видео: SATRip
    Формат видео: AVI
    Видео: XviD MPEG-4 , 720x304 (2.37:1) , 25 fps , 2154 kbps avg
    Аудио: AC3 , 48 kHz , 192.00 kbps avg , 2/0 (L,R) ch

    MediaInfo

    Complete name Любовь моя, печаль моя 1978.avi
    Format : AVI
    Format/Info : Audio Video Interleave
    File size : 1.45 GiB
    Duration : 1h 28mn
    Overall bit rate : 2 356 Kbps
    Writing library : VirtualDub build 35491/release
    Video
    ID : 0
    Format : MPEG-4 Visual
    Format profile : Advanced Simple@L5
    Format settings, BVOP : 2
    Format settings, QPel : No
    Format settings, GMC : No warppoints
    Format settings, Matrix : Default (H.263)
    Codec ID : XVID
    Codec ID/Hint : XviD
    Duration : 1h 28mn
    Bit rate : 2 154 Kbps
    Width : 720 pixels
    Height : 304 pixels
    Display aspect ratio : 2.35:1
    Frame rate : 25.000 fps
    Color space : YUV
    Chroma subsampling : 4:2:0
    Bit depth : 8 bits
    Scan type : Progressive
    Compression mode : Lossy
    Bits/(Pixel*Frame) : 0.394
    Stream size : 1.33 GiB (91%)
    Writing library : XviD 1.2.1 (UTC 2008-12-04)
    Audio
    ID : 1
    Format : AC-3
    Format/Info : Audio Coding 3
    Mode extension : CM (complete main)
    Format settings, Endianness : Big
    Codec ID : 2000
    Duration : 1h 28mn
    Bit rate mode : Constant
    Bit rate : 192 Kbps
    Channel(s) : 2 channels
    Channel positions : Front: L R
    Sampling rate : 48.0 KHz
    Bit depth : 16 bits
    Compression mode : Lossy
    Stream size : 121 MiB (8%)
    Alignment : Aligned on interleaves
    Interleave, duration : 40 ms (1.00 video frame)
    Interleave, preload duratio : 512 ms

    Скриншоты

    Скачать .torrent

    Скачать торрент-файл бесплатно и на максимальной скорости!

    Как скачивать? · Что такое торрент? · Рейтинг и ограничения

    !ВНИМАНИЕ!
    Сайт не распространяет и не хранит электронные версии произведений, а занимается лишь лишь предоставлением доступа к создаваемому пользователями каталогу ссылок на торрент-файлы, которые содержат только списки хеш-сумм, убедительная просьба с жалобами обращаться напрямую к пользователю. Файлы для обмена на трекере предоставлены пользователями сайта, и администрация не несёт ответственности за их содержание. Просьба не заливать файлы, защищенные авторскими правами, а также файлы нелегального содержания!


    _________________
    [Профиль] [ЛС]
    Показать сообщения:    
    Ответить на тему

    Текущее время: Сегодня, в 19:50

    Часовой пояс: GMT + 2



    Вы не можете начинать темы
    Вы не можете отвечать на сообщения
    Вы не можете редактировать свои сообщения
    Вы не можете удалять свои сообщения
    Вы не можете голосовать в опросах
    Вы не можете прикреплять файлы к сообщениям
    Вы не можете скачивать файлы