BitTorrentTracker PerecTracker.org
BitTorrentTracker PerecTracker.org
    
Регистрация  ·  Вход
 
 · 
Забыли пароль?

  • За день до... (Олег Борецкий, Александр Негреба) [1991 г., Драма, криминал, VHSRip]

    Ответить на тему
     
    Автор Сообщение

    Light

    Создавать темы 13-Мар-2015 22:57

           

    [Цитировать]

    За день до...Год выпуска: 1991.
    Жанр: Драма, криминал.
    Продолжительность: 01:48:52.
    Режиссеры: Олег Борецкий, Александр Негреба.
    В ролях:
    Елена Копцева-Негреба, Галина Сазонова, Татьяна Кореневская, Олег Борецкий, Александр Негреба, Александр Миронов, Михаил Богдасаров, Григорий Мануков, Игорь Золотовицкий, Александр Мохов, Александр Макаров, Павел Сиротин.
    Описание:
    История лирических дилетантов в среде профессиональных убийц. Компания творческой молодежи пытается в заповедной квартире сохранить островок безопасности, покоя, свой особый стиль жизни и отношений. Hо эта свобода дорого им обходится. Начинается лента как плохой советский детектив, а заканчивается как лихой "кооперативный" боевик. И в промежутке между жанрами - жизнь, любовь, кино.
    Доп. информация:
    Страна: СССР .
    Киностудия: ХТО "Веди-Фильм".
    Авторы сценария: Юрий Матыс, Ирина Рогачева.
    Операторы: Виктор Куликов, Михаил Мукасей.
    Композитор: Владимир Логунов.
    Художник: Дмитрий Комиссаров.
    Премьера: февраль 1992 года.
    Награды, номинации, фестивали:
    • 1993 Кинофестиваль «Вторая премьера» в Москве. Приз в номинации «Фаворит года» (Александр Негреба),
    • 1991 МКФеждународный Кинофестиваль "Интерфест" в Москве. Приз прессы за режиссуру (Александр Негреба).

    Большое спасибо Starik1941 за материал для раздачи.

    Качество: VHSRip
    Формат: DVD Video
    Видео: MPEG- 1/2 Video (mpgv), 768x576, 25.00 fps, 6821 kbps
    Аудио: Codec A52 Audio (AC3), 2 ch, 48 kHz, 256.00 kbps

    Отчет MI

    General
    Complete name : Za.den'.do.1991.mpeg2.VHSRip\VTS_01_1.VOB
    Формат : MPEG-PS
    Размер файла : 1016 Мбайт
    Продолжительность : 28 м.
    Режим общего битрейта : Переменный
    Общий поток : 4899 Кбит/сек
    Видео
    Идентификатор : 224 (0xE0)
    Формат : MPEG Video
    Версия формата : Version 2
    Профиль формата : Main@Main
    Параметр BVOP формата : Да
    Параметр матрицы формата : Выборочная
    Параметр GOP формата : Variable
    Продолжительность : 28 м.
    Вид битрейта : Переменный
    Битрейт : 4545 Кбит/сек
    Максимальный битрейт : 9400 Кбит/сек
    Ширина : 720 пикселей
    Высота : 576 пикселей
    Соотношение сторон : 4:3
    Частота кадров : 25,000 кадров/сек
    Стандарт вещания : PAL
    Цветовое пространство : YUV
    Субдискретизация насыщенности : 4:2:0
    Битовая глубина : 8 бит
    Тип развёртки : Чересстрочная
    Порядок развёртки : Верхнее поле первое
    Метод сжатия : С потерями
    Бит/(Пиксели*Кадры) : 0.438
    Временной код первого кадра : 00:00:38:22
    Оригинал временного кода : Group of pictures header
    Размер потока : 943 Мбайт (93%)
    Основные цвета : BT.601 PAL
    Характеристики трансфера : BT.470 System B, BT.470 System G
    Коэффициенты матрицы : BT.601
    Аудио
    Идентификатор : 189 (0xBD)-128 (0x80)
    Формат : AC-3
    Формат/Информация : Audio Coding 3
    Расширение режима : CM (complete main)
    Параметр Endianness формата : Big
    Режим смешивания : DVD-Video
    Продолжительность : 28 м.
    Вид битрейта : Постоянный
    Битрейт : 256 Кбит/сек
    Каналы : 2 канала
    Расположение каналов : Front: L R
    Частота : 48,0 КГц
    Битовая глубина : 16 бит
    Метод сжатия : С потерями
    Задержка видео : -400 мс.
    Размер потока : 53,1 Мбайт (5%)
    Скриншоты

    Альтернативный хост


    Скачать .torrent

    Скачать торрент-файл бесплатно и на максимальной скорости!

    Как скачивать? · Что такое торрент? · Рейтинг и ограничения

    !ВНИМАНИЕ!
    Сайт не распространяет и не хранит электронные версии произведений, а занимается лишь лишь предоставлением доступа к создаваемому пользователями каталогу ссылок на торрент-файлы, которые содержат только списки хеш-сумм, убедительная просьба с жалобами обращаться напрямую к пользователю. Файлы для обмена на трекере предоставлены пользователями сайта, и администрация не несёт ответственности за их содержание. Просьба не заливать файлы, защищенные авторскими правами, а также файлы нелегального содержания!


    _________________
    [Профиль] [ЛС]
    Показать сообщения:    
    Ответить на тему

    Текущее время: Сегодня, в 04:18

    Часовой пояс: GMT + 2



    Вы не можете начинать темы
    Вы не можете отвечать на сообщения
    Вы не можете редактировать свои сообщения
    Вы не можете удалять свои сообщения
    Вы не можете голосовать в опросах
    Вы не можете прикреплять файлы к сообщениям
    Вы не можете скачивать файлы