BitTorrentTracker PerecTracker.org
BitTorrentTracker PerecTracker.org
    
Регистрация  ·  Вход
 
 · 
Забыли пароль?

  • Большая дорога (Юрий Озеров) [1962 г., киноповесть, комедия, SATRip]

    Ответить на тему
     
    Автор Сообщение

    Light

    Создавать темы 13-Мар-2015 22:57

           

    [Цитировать]

    Большая дорога / Velká cestaГод выпуска: 1962.
    Жанр: киноповесть, комедия.
    Продолжительность: 01:35:23.
    Субтитры: русские, внешние (на непереведенную чешскую речь).
    Режиссер: Юрий Озеров.
    В ролях:
    Йозеф Абргам, Рудольф Грушинский, Инна Гулая, Ярослав Марван, Франтишек Филиповский, Юрий Яковлев, Александр Кутепов, Николай Гринько, Олег Борисов, Сергей Филиппов, Йозеф Кемр, Йозеф Глиномаз, Франтишек Ганус.
    Описание:
    Посвящен известному чешскому писателя Ярославу Гашеку.
    Молодой журналист Ярослав Гашек (Йозеф Абрхам) доставляет много хлопот пражской полиции. Его высказывания можно расценить как политически неблагонадёжные, он откровенно издевается над тайными агентами, а после объявления войны, в насмешку, зарегистрировался в одном из отелей под именем приехавшего из Москвы Ивана Иванова.
    Мобилизованный в действующую армию, он попадает на восточный фронт и прилагает все усилия, чтобы сдаться русским солдатам. После одной из удачных попыток Гашек оказался в лагере для военнопленных, где подружился с солдатом Йозефом Страшлипкой (Рудольф Грушинский) — симпатичным увальнем из своего отделения.
    Лагерное начальство принимает решение, очистить свои ряды от большевизированных элементов и ночью друзья бегут из-под охраны. У красных, Гашека, как писателя, следовательно образованного человека, назначают комендантом небольшого городка, взамен заболевшего тифом предшественника.
    Его помощницей становится Шура (Инна Гулая), девушка, совмещающая в себе застенчивость и страстность борьбы за идеалы революции. В свободное время Гашек пишет книгу о похождениях бравого солдата на фронтах мировой войны, главным героем которой становиться Йозеф Страшлипка, который после прочтения первых глав, убедил автора заменить его имя другим. Так рождается Швейк...
    Спустя некоторое время, город был взят наступающими белочехами и комендант со своим неразлучным товарищем были приговорены к расстрелу. Солдаты, их бывшие сослуживцы, иммитировали исполнение казни, и арестованным удалось бежать. Добравшись до Москвы, Гашек настоял на встрече с Яковом Свердловым и получил назначение на фронт — пропагандистом для агитации в чешских подразделениях.
    В конце гражданской войны он возвращается на родину с Шурой, ставшей его женой, и верным другом Йозефом. В Праге, теперь столице нового государства, он обнаружил хорошо знакомых ему до войны персонажей, удобно расположившихся на прежних местах.
    Очень остроумный, добрый и трогательный фильм, полный настоящего чешского юмора.

    Доп. информация:
    Страна: СССР , ЧССР .
    Киностудия: Мосфильм, Баррандов.
    Автор сценария: Георгий Мдивани.
    Оператор: Игорь Черных.
    Композитор: Карэн Хачатурян.
    Художник: Александр Мягков.
    Премьера: 27 апреля 1963 года (Москва), 18 октября 1963 года (Прага).

    Релиз
    Рип с этой раздачи.
    Большое спасибо Cheef mate за предоставленый материал!!!

    Еще постеры


    Качество: SATRip
    Формат: AVI
    Видео: 688x528 (1.30:1), 25 fps, XviD build 73 ~2009 kbps avg, 0.22 bit/pixel
    Аудио: 48 kHz, AC3 Dolby Digital, 2/0 (L,R) ch, ~192 kbps

    Отчет MI

    General
    Complete name : Bol'shaya.doroga.1962.XviD.SATRip.fenixclub_1.48.avi
    Формат : AVI
    Формат/Информация : Audio Video Interleave
    Размер файла : 1,47 Гбайт
    Продолжительность : 1 ч. 35 м.
    Общий поток : 2211 Кбит/сек
    Программа кодирования : VirtualDubMod 1.5.10.3 | www.virtualdub-fr.org || (build 2550/release)
    Библиотека кодирования : VirtualDubMod build 2550/release
    Видео
    Идентификатор : 0
    Формат : MPEG-4 Visual
    Профиль формата : Advanced Simple@L5
    Параметр BVOP формата : 2
    Параметр QPel формата : Нет
    Параметр GMC формата : Без точки перехода
    Параметр матрицы формата : Выборочная
    Идентификатор кодека : XVID
    Идентификатор кодека/Подсказка : XviD
    Продолжительность : 1 ч. 35 м.
    Битрейт : 2009 Кбит/сек
    Ширина : 688 пикселей
    Высота : 528 пикселей
    Соотношение сторон : 4:3
    Частота кадров : 25,000 кадров/сек
    Цветовое пространство : YUV
    Субдискретизация насыщенности : 4:2:0
    Битовая глубина : 8 бит
    Тип развёртки : Прогрессивная
    Метод сжатия : С потерями
    Бит/(Пиксели*Кадры) : 0.221
    Размер потока : 1,34 Гбайт (91%)
    Библиотека кодирования : XviD 73
    Аудио
    Идентификатор : 1
    Формат : AC-3
    Формат/Информация : Audio Coding 3
    Расширение режима : CM (complete main)
    Параметр Endianness формата : Big
    Идентификатор кодека : 2000
    Продолжительность : 1 ч. 35 м.
    Вид битрейта : Постоянный
    Битрейт : 192 Кбит/сек
    Каналы : 2 канала
    Расположение каналов : Front: L R
    Частота : 48,0 КГц
    Битовая глубина : 16 бит
    Метод сжатия : С потерями
    Размер потока : 131 Мбайт (9%)
    Выравнивание : Разделение по промежуткам
    Продолжительность промежутка : 40 мс. (1,00 видеокадр)
    Время предзагрузки промежутка : 500 мс.
    Скриншоты

    Альтернативный хост

    Скачать .torrent

    Скачать торрент-файл бесплатно и на максимальной скорости!

    Как скачивать? · Что такое торрент? · Рейтинг и ограничения

    !ВНИМАНИЕ!
    Сайт не распространяет и не хранит электронные версии произведений, а занимается лишь лишь предоставлением доступа к создаваемому пользователями каталогу ссылок на торрент-файлы, которые содержат только списки хеш-сумм, убедительная просьба с жалобами обращаться напрямую к пользователю. Файлы для обмена на трекере предоставлены пользователями сайта, и администрация не несёт ответственности за их содержание. Просьба не заливать файлы, защищенные авторскими правами, а также файлы нелегального содержания!


    _________________
    [Профиль] [ЛС]
    Показать сообщения:    
    Ответить на тему

    Текущее время: Сегодня, в 05:52

    Часовой пояс: GMT + 2



    Вы не можете начинать темы
    Вы не можете отвечать на сообщения
    Вы не можете редактировать свои сообщения
    Вы не можете удалять свои сообщения
    Вы не можете голосовать в опросах
    Вы не можете прикреплять файлы к сообщениям
    Вы не можете скачивать файлы