Register  ·  Log in
Forgot password?

  • Белые, белые аисты (Али Хамраев) [1966, драма, DVB]

    Reply to topic
    Author Message


    Post 13-Mar-2015 23:57



    Белые, белые аисты
    Жанр: драма
    Год выпуска: 1966
    Продолжительность: 01:27:06
    Режиссёр: Али Хамраев
    В ролях: Сайрам Исаева, Болот Бейшеналиев, Хикмат Латыпов, Мохаммед Рафиков, Раззак Хамраев, Рахим Пирмухамедов, Саиб Ходжаев, С. Алиева, Вахаб Абдуллаев, Лютфи Сарымсакова, М. Таджи-заде, Джавлон Хамраев, З. Салиева, Х. Нугманова, Рустам Сагдуллаев
    Описание: Действие киноповести происходит в маленьком узбекском кишлаке. По воле родителей юная Малика выходит замуж за нелюбимого человека. Встретив первую любовь, Малика восстает против семейных традиций...
    Доп. информация: Запись потока *.ts со спутника Ямал 202, 49° в.д., ремукс в *.mpg программой VideoReDo.
    Качество видео: DVB
    Формат видео: MPEG-PS
    Видео: MPEG Video, 720(768)x576 (4:3), 25,000 кадров/сек, 5323 Кбит/сек
    Аудио: MPEG Audio, 48,0 КГц, 256 Кбит/сек, 2 канала


    Complete name : X:\Torrent\Белые, белые аисты (КУЛЬТУРА 49).mpg
    Format : MPEG-PS
    File size : 3.46 GiB
    Duration : 1h 27mn
    Overall bit rate mode : Variable
    Overall bit rate : 5 693 Kbps
    ID : 224 (0xE0)
    Format : MPEG Video
    Format version : Version 2
    Format profile : Main@Main
    Format settings, BVOP : Yes
    Format settings, Matrix : Custom
    Duration : 1h 27mn
    Bit rate mode : Variable
    Bit rate : 5 323 Kbps
    Maximum bit rate : 15.0 Mbps
    Width : 720 pixels
    Height : 576 pixels
    Display aspect ratio : 4:3
    Frame rate : 25.000 fps
    Standard : PAL
    Color space : YUV
    Chroma subsampling : 4:2:0
    Bit depth : 8 bits
    Scan type : Interlaced
    Scan order : Top Field First
    Compression mode : Lossy
    Bits/(Pixel*Frame) : 0.513
    Stream size : 3.24 GiB (94%)
    ID : 192 (0xC0)
    Format : MPEG Audio
    Format version : Version 1
    Format profile : Layer 2
    Duration : 1h 27mn
    Bit rate mode : Constant
    Bit rate : 256 Kbps
    Channel(s) : 2 channels
    Sampling rate : 48.0 KHz
    Compression mode : Lossy
    Delay relative to video : 9ms
    Stream size : 159 MiB (4%)


    Download .torrent

    Download free and at maximum speed!

    How to Download? · What is a torrent? · Ratings and Limitations

    The site does not extend and does not store electronic(digital) versions of products, and only gives access to a reference catalogue created by users on torrent-files which contain only lists of the hash-sums, the earnest entreaty, with complaints(abuse) to access directly to the user. Files for an exchange on tracker are given by users of a site, and the administration does not bear the responsibility for their maintenance. The request to not fill in the files protected by copyrights, and also files of the illegal maintenance!

    [Profile] [PM]
    Display posts from previous:    
    Reply to topic

    The time now is: Today 02:11

    All times are GMT + 3 Hours

    You cannot post new topics in this forum
    You cannot reply to topics in this forum
    You cannot edit your posts in this forum
    You cannot delete your posts in this forum
    You cannot vote in polls in this forum
    You cannot attach files in this forum
    You cannot download files in this forum