BitTorrentTracker PerecTracker.org
BitTorrentTracker PerecTracker.org
    
Регистрация  ·  Вход
 
 · 
Забыли пароль?

  • Полосатый рейс (Владимир Фетин) [1961, СССР, комедия, приключения, семейный, BDRip-AVC] + Subs (Rus, Eng)

    Ответить на тему
     
    Автор Сообщение

    Light

    Создавать темы 13-Мар-2015 22:57

           

    [Цитировать]

    Полосатый рейс-Страна: СССР
    Жанр: комедия, приключения, семейный
    Год выпуска: 1961
    Продолжительность: 01:27:07-Перевод: Не требуется
    Cубтитры: Русские (полные), English (full)
    Навигация по главам: присутствует - 12 глав-Режиссер: Владимир Фетин
    В ролях: Алексей Грибов, Иван Дмитриев, Маргарита Назарова, Евгений Леонов, Владимир Белокуров, Николай Волков, Александр Бениаминов, Аркадий Трусов, Алексей Смирнов, Алексей Кожевников, Владимир Граве, Геннадий Ложкин, Александр Суснин, Николай Трофимов, Алиса Фрейндлих, Олег Хроменков, Константин Константиновский, Юрий Горобец, Василий Лановой, Лидия Доротенко, Михаил Васильев-Описание: На советский теплоход погрузили опасный груз — тигров и львов, а сопровождать приставили буфетчика… Во время плавания маленькая обезьянка, подаренная капитану, открывает клетки. Хищники выходят на свободу, вся команда в ужасе разбегается. И только племяннице капитана удается спасти положение, укротив диких зверей…-
    Download sample-Качество видео: BDRip-AVC | исх. Blu-ray disc - thx:
    Формат: MKV-Видео: 870x634 (1.372), 23.976 fps, H.264 ~4 400 kbps avg, 0.325 bit/pixel
    Аудио: 48.0 kHz, AC3 Dolby Digital, 3/2 (L,C,R,l,r) + LFE ch, ~448 kbps
    Субтитры №1: Русские (полные) | *.srt
    Субтитры №2: English (full) | *.srt-

    MediaInfo

    General
    Unique ID : 250980897905592355856930328394885858259 (0xBCD129A50A30C9198D06C96123E183D3)
    Complete name : D:\Фильмы\Рипы\Polosatyj rejs.1961.BDRip-AVC.eFK tRuAVC.mkv
    Format : Matroska
    Format version : Version 4 / Version 2
    File size : 2.95 GiB
    Duration : 1h 27mn
    Overall bit rate : 4 842 Kbps
    Movie name : Полосатый рейс (1961) - Release for rutracker
    Encoded date : UTC 2015-02-18 08:23:38
    Writing application : mkvmerge v7.6.0 ('Garden of Dreams') 64bit built on Feb 8 2015 13:04:34
    Writing library : libebml v1.3.1 + libmatroska v1.4.2
    Attachements : cover.png
    DURATION : 01:24:52.413000000
    NUMBER_OF_FRAMES : 984
    NUMBER_OF_BYTES : 26682
    _STATISTICS_WRITING_APP : mkvmerge v7.6.0 ('Garden of Dreams') 64bit built on Feb 8 2015 13:04:34
    _STATISTICS_WRITING_DATE_UT : 2015-02-18 08:23:38
    _STATISTICS_TAGS : BPS DURATION NUMBER_OF_FRAMES NUMBER_OF_BYTES
    Video
    ID : 1
    Format : AVC
    Format/Info : Advanced Video Codec
    Format profile : High@L4.1
    Format settings, CABAC : Yes
    Format settings, ReFrames : 13 frames
    Codec ID : V_MPEG4/ISO/AVC
    Duration : 1h 27mn
    Bit rate : 4 298 Kbps
    Width : 870 pixels
    Height : 634 pixels
    Display aspect ratio : 1.372
    Frame rate mode : Constant
    Frame rate : 23.976 fps
    Color space : YUV
    Chroma subsampling : 4:2:0
    Bit depth : 8 bits
    Scan type : Progressive
    Bits/(Pixel*Frame) : 0.325
    Stream size : 2.62 GiB (89%)
    Title : eFK tRuAVC
    Writing library : x264 core 144 r2525kMod 40bb568
    Encoding settings : cabac=1 / ref=13 / deblock=1:-3:-2 / analyse=0x3:0x133 / me=umh / subme=11 / psy=1 / fade_compensate=0.00 / psy_rd=0.95:0.00 / mixed_ref=1 / me_range=32 / chroma_me=1 / trellis=2 / 8x8dct=1 / cqm=0 / deadzone=21,11 / fast_pskip=0 / chroma_qp_offset=-2 / threads=12 / lookahead_threads=3 / sliced_threads=0 / nr=0 / decimate=1 / interlaced=0 / bluray_compat=0 / constrained_intra=0 / fgo=0 / bframes=16 / b_pyramid=2 / b_adapt=2 / b_bias=0 / direct=3 / weightb=1 / open_gop=0 / weightp=2 / keyint=250 / keyint_min=23 / scenecut=40 / intra_refresh=0 / rc_lookahead=60 / rc=crf / mbtree=0 / crf=18.2000 / qcomp=0.65 / qpmin=0 / qpmax=69 / qpstep=4 / vbv_maxrate=50000 / vbv_bufsize=62500 / crf_max=0.0 / nal_hrd=none / filler=0 / ip_ratio=1.40 / pb_ratio=1.30 / aq=3:0.70
    Language : English
    Default : Yes
    Forced : No
    Color primaries : BT.709
    Transfer characteristics : BT.709
    Matrix coefficients : BT.709
    Color range : Limited
    DURATION : 01:27:07.723000000
    NUMBER_OF_FRAMES : 125340
    NUMBER_OF_BYTES : 2869211964
    _STATISTICS_WRITING_APP : mkvmerge v7.6.0 ('Garden of Dreams') 64bit built on Feb 8 2015 13:04:34
    _STATISTICS_WRITING_DATE_UT : 2015-02-18 08:23:38
    _STATISTICS_TAGS : BPS DURATION NUMBER_OF_FRAMES NUMBER_OF_BYTES
    Audio
    ID : 2
    Format : AC-3
    Format/Info : Audio Coding 3
    Mode extension : CM (complete main)
    Format settings, Endianness : Big
    Codec ID : A_AC3
    Duration : 1h 27mn
    Bit rate mode : Constant
    Bit rate : 448 Kbps
    Channel(s) : 6 channels
    Channel positions : Front: L C R, Side: L R, LFE
    Sampling rate : 48.0 KHz
    Bit depth : 16 bits
    Compression mode : Lossy
    Stream size : 279 MiB (9%)
    Language : Russian
    Default : Yes
    Forced : No
    Text #1
    ID : 3
    Format : UTF-8
    Codec ID : S_TEXT/UTF8
    Codec ID/Info : UTF-8 Plain Text
    Title : full
    Language : Russian
    Default : No
    Forced : No
    Text #2
    ID : 4
    Format : UTF-8
    Codec ID : S_TEXT/UTF8
    Codec ID/Info : UTF-8 Plain Text
    Title : full
    Language : English
    Default : No
    Forced : No
    Menu
    00:00:00.000 : :Chapter 01
    00:03:10.190 : :Chapter 02
    00:11:23.683 : :Chapter 03
    00:14:34.874 : :Chapter 04
    00:26:39.598 : :Chapter 05
    00:31:30.889 : :Chapter 06
    00:38:07.285 : :Chapter 07
    00:43:13.591 : :Chapter 08
    00:51:36.093 : :Chapter 09
    01:04:49.886 : :Chapter 10
    01:14:44.479 : :Chapter 11
    01:23:28.003 : :Chapter 12

    x264 log

    x264 [info]: frame I:734 Avg QP:19.18 size: 89994
    x264 [info]: frame P:27488 Avg QP:20.65 size: 47100
    x264 [info]: frame B:97118 Avg QP:22.89 size: 15532
    x264 [info]: consecutive B-frames: 1.8% 2.1% 8.9% 21.3% 12.9% 52.3% 0.6% 0.1% 0.0% 0.0% 0.0% 0.0% 0.0% 0.0% 0.0% 0.0% 0.0%
    x264 [info]: mb I I16..4: 1.1% 81.8% 17.1%
    x264 [info]: mb P I16..4: 0.1% 22.5% 2.1% P16..4: 24.4% 31.9% 16.1% 2.3% 0.1% skip: 0.5%
    x264 [info]: mb B I16..4: 0.0% 2.6% 0.3% B16..8: 36.5% 26.0% 7.0% direct: 6.3% skip:21.3% L0:39.6% L1:45.8% BI:14.7%
    x264 [info]: 8x8 transform intra:89.9% inter:58.4%
    x264 [info]: direct mvs spatial:100.0% temporal:0.0%
    x264 [info]: coded y,uvDC,uvAC intra: 98.5% 67.3% 29.4% inter: 39.4% 19.6% 0.9%
    x264 [info]: i16 v,h,dc,p: 38% 10% 3% 49%
    x264 [info]: i8 v,h,dc,ddl,ddr,vr,hd,vl,hu: 8% 8% 9% 10% 14% 13% 14% 12% 13%
    x264 [info]: i4 v,h,dc,ddl,ddr,vr,hd,vl,hu: 11% 7% 2% 9% 17% 16% 15% 12% 12%
    x264 [info]: i8c dc,h,v,p: 28% 34% 22% 17%
    x264 [info]: Weighted P-Frames: Y:19.4% UV:9.6%
    x264 [info]: ref P L0: 41.6% 14.9% 16.2% 6.2% 4.9% 3.5% 3.2% 1.8% 1.8% 1.5% 1.4% 1.2% 1.3% 0.5% 0.0%
    x264 [info]: ref B L0: 85.1% 6.7% 2.6% 1.5% 1.0% 0.9% 0.7% 0.5% 0.4% 0.4% 0.3% 0.2%
    x264 [info]: ref B L1: 97.8% 2.2%
    x264 [info]: kb/s:4390.76
    x264 [total]: encoded 125340 frames, 7.59 fps, 4390.76 kb/s, duration 4:35:04.83

    Screenshots

    Comparison

    Source

    Encode
    Цитата:
    Цитата:

    • Диск приобретен на средства пользователей BlueBird за что им огромное спасибо!
    Скачать .torrent

    Скачать торрент-файл бесплатно и на максимальной скорости!

    Как скачивать? · Что такое торрент? · Рейтинг и ограничения

    !ВНИМАНИЕ!
    Сайт не распространяет и не хранит электронные версии произведений, а занимается лишь лишь предоставлением доступа к создаваемому пользователями каталогу ссылок на торрент-файлы, которые содержат только списки хеш-сумм, убедительная просьба с жалобами обращаться напрямую к пользователю. Файлы для обмена на трекере предоставлены пользователями сайта, и администрация не несёт ответственности за их содержание. Просьба не заливать файлы, защищенные авторскими правами, а также файлы нелегального содержания!


    _________________
    [Профиль] [ЛС]
    Показать сообщения:    
    Ответить на тему

    Текущее время: Сегодня, в 00:13

    Часовой пояс: GMT + 2



    Вы не можете начинать темы
    Вы не можете отвечать на сообщения
    Вы не можете редактировать свои сообщения
    Вы не можете удалять свои сообщения
    Вы не можете голосовать в опросах
    Вы не можете прикреплять файлы к сообщениям
    Вы не можете скачивать файлы