BitTorrentTracker PerecTracker.org
BitTorrentTracker PerecTracker.org
    
Регистрация  ·  Вход
 
 · 
Забыли пароль?

  • Земля в плену (Фёдор Оцеп) [1927, Драма, немое кино, SATRip]

    Ответить на тему
     
    Автор Сообщение

    Light

    Создавать темы 13-Мар-2015 22:57

           

    [Цитировать]

    Земля в плену
    Жанр: Драма, немое кино
    Страна: СССР
    Студия: МЕЖРАБПОМ-РУСЬ
    Год выпуска: 1927
    Продолжительность: 01:09:38.919 (104473 frames)
    Режиссёр: Фёдор Оцеп
    В ролях:
    Анна Стэн … Мария
    Иван Коваль-Самборский … Яков
    Софья Яковлева … Катерина
    Михаил Нароков … Бельский, помещик
    Анель (Анна) Судакевич … Аня, дочь Бельского
    Владимир Фогель … зять помещика
    Пётр Бакшеев … швейцар
    Николай Баталов … земляк Марии
    Софья Левитина … барыня
    Вера Марецкая … проститутка
    Константин Градополов (старший)
    Порфирий Подобед
    Иван Чувелев … эпизод
    Александр Громов … земляк (нет в титрах)
    Даниил Введенский … посетитель публичного дома (нет в титрах)
    Описание: Из жизни крестьян дореволюционной России. Солдат царской армии Яков, отслужив срок, возвращается в деревню. Герой мечтает сколотить хозяйство и создать для своей семьи счастливую жизнь. Его жена Мария, чтобы их малое хозяйство не пошло с торгов, соглашается на время побыть кормилицей у господского ребенка. Однако, оказавшись в городе, Мария становится не только кормилицей, но и наложницей барина...
    Дополнительная информация:
    Автор рипа: pmv
    Большое спасибо за:
    - Исходник DVB - Cheef mate
    (Запись потока *.ts со спутника Ямал 202, 49° в.д., с ТК «Россия-Культура»)


    В фильме использована музыка композиторов: Сергея Рахманинова, Эрика Сати, Николая Митрофанова, а также русская и польская народная музыка.
    ПРОСЬБА к СКАЧАВШИМ. НЕ УХОДИТЕ С РАЗДАЧИ, ПОМОГИТЕ ДРУГИМ СКАЧАТЬ!!!
    Качество видео: SATRip
    Формат видео: AVI
    Видео: 720x544 (1.32:1), 25 fps, XviD build 73 ~2066 kbps avg, 0.21 bit/pixel
    Аудио: 48 kHz, MPEG Layer 3, 2 ch, ~128.00 kbps avg

    MediaInfo

    General
    Complete name : D:\torrents\земля в плену (1927).avi
    Format : AVI
    Format/Info : Audio Video Interleave
    File size : 1.07 GiB
    Duration : 1h 9mn
    Overall bit rate : 2 204 Kbps
    Writing library : VirtualDub build 35576/release
    Video
    ID : 0
    Format : MPEG-4 Visual
    Format profile : Advanced Simple@L5
    Format settings, BVOP : Yes
    Format settings, QPel : No
    Format settings, GMC : No warppoints
    Format settings, Matrix : Default (H.263)
    Codec ID : XVID
    Codec ID/Hint : XviD
    Duration : 1h 9mn
    Bit rate : 2 066 Kbps
    Width : 720 pixels
    Height : 544 pixels
    Display aspect ratio : 4:3
    Frame rate : 25.000 fps
    Resolution : 8 bits
    Colorimetry : 4:2:0
    Scan type : Progressive
    Bits/(Pixel*Frame) : 0.211
    Stream size : 1.01 GiB (94%)
    Writing library : XviD 73
    Audio
    ID : 1
    Format : MPEG Audio
    Format version : Version 1
    Format profile : Layer 3
    Format_Settings_Mode : Joint stereo
    Codec ID : 55
    Codec ID/Hint : MP3
    Duration : 1h 9mn
    Bit rate mode : Constant
    Bit rate : 128 Kbps
    Channel(s) : 2 channels
    Sampling rate : 48.0 KHz
    Stream size : 63.8 MiB (6%)
    Alignment : Split accross interleaves
    Interleave, duration : 40 ms (1.00 video frame)
    Interleave, preload duration : 500 ms

    Скриншот с названием фильма

    Скриншоты

    Скачать .torrent

    Скачать торрент-файл бесплатно и на максимальной скорости!

    Как скачивать? · Что такое торрент? · Рейтинг и ограничения

    !ВНИМАНИЕ!
    Сайт не распространяет и не хранит электронные версии произведений, а занимается лишь лишь предоставлением доступа к создаваемому пользователями каталогу ссылок на торрент-файлы, которые содержат только списки хеш-сумм, убедительная просьба с жалобами обращаться напрямую к пользователю. Файлы для обмена на трекере предоставлены пользователями сайта, и администрация не несёт ответственности за их содержание. Просьба не заливать файлы, защищенные авторскими правами, а также файлы нелегального содержания!


    _________________
    [Профиль] [ЛС]
    Показать сообщения:    
    Ответить на тему

    Текущее время: Сегодня, в 12:02

    Часовой пояс: GMT + 2



    Вы не можете начинать темы
    Вы не можете отвечать на сообщения
    Вы не можете редактировать свои сообщения
    Вы не можете удалять свои сообщения
    Вы не можете голосовать в опросах
    Вы не можете прикреплять файлы к сообщениям
    Вы не можете скачивать файлы