BitTorrentTracker PerecTracker.org
BitTorrentTracker PerecTracker.org
    
Регистрация  ·  Вход
 
 · 
Забыли пароль?

  • Бывает и так (киноальманах) (Владимир Архангельский, Язгельды Сеидов) [1965, комедия, VHSRip]

    Ответить на тему
     
    Автор Сообщение

    Light

    Создавать темы 13-Мар-2015 22:57

           

    [Цитировать]

    Бывает и так (киноальманах)
    Жанр: комедия
    Год выпуска: 1965
    Продолжительность: 1:10:40
    Режиссёр: Владимир Архангельский, Язгельды Сеидов
    В ролях: Алексей Смирнов, Савелий Крамаров, Георгий Вицин, Нина Агапова, Евгений Моргунов, Георгий Милляр, Антонина Рустамова, Елена Рысина, Станислав Соколов, Ораз Ходжаев
    Описание: Фильм состоит из трех комедийных новелл: «Сбежала машина», «Ночной сеанс» и «Скелет Аполлона».
    Семпл: http://multi-up.com/1033734
    Качество видео: VHSRip
    Формат видео: AVI
    Видео: XVID; 640x480; 1,33:1; 25.000 fps; 2 016 Kbps
    Аудио: Russian; MPEG Layer 3; 44,1KHz; 128 Kbps; 2 channels

    MediaInfo

    General
    Format : AVI
    Format/Info : Audio Video Interleave
    Format profile : OpenDML
    File size : 1.07 GiB
    Duration : 1h 10mn
    Overall bit rate : 2 160 Kbps
    Writing application : Lavf54.63.104
    Video #0
    ID : 0
    Format : xvid
    Codec ID : xvid
    Duration : 1h 10mn
    Bit rate : 2 016 Kbps
    Width : 640 pixels
    Height : 480 pixels
    Display aspect ratio : 4:3
    Frame rate : 25.000 fps
    Bits/(Pixel*Frame) : 0.262
    Stream size : 1 019 MiB (93%)
    Audio #1
    ID : 1
    Format : MPEG Audio
    Format version : Version 1
    Format profile : Layer 3
    Mode : Joint stereo
    Mode extension : MS Stereo
    Codec ID : 55
    Codec ID/Hint : MP3
    Duration : 1h 10mn
    Bit rate mode : Constant
    Bit rate : 128 Kbps
    Channel(s) : 2 channels
    Sampling rate : 44.1 KHz
    Compression mode : Lossy
    Stream size : 64.7 MiB (6%)
    Alignment : Aligned on interleaves
    Interleave, duration : 26 ms (0.65 video frame)

    Скриншоты











    Скачать .torrent

    Скачать торрент-файл бесплатно и на максимальной скорости!

    Как скачивать? · Что такое торрент? · Рейтинг и ограничения

    !ВНИМАНИЕ!
    Сайт не распространяет и не хранит электронные версии произведений, а занимается лишь лишь предоставлением доступа к создаваемому пользователями каталогу ссылок на торрент-файлы, которые содержат только списки хеш-сумм, убедительная просьба с жалобами обращаться напрямую к пользователю. Файлы для обмена на трекере предоставлены пользователями сайта, и администрация не несёт ответственности за их содержание. Просьба не заливать файлы, защищенные авторскими правами, а также файлы нелегального содержания!


    _________________
    [Профиль] [ЛС]
    Показать сообщения:    
    Ответить на тему

    Текущее время: Сегодня, в 15:40

    Часовой пояс: GMT + 2



    Вы не можете начинать темы
    Вы не можете отвечать на сообщения
    Вы не можете редактировать свои сообщения
    Вы не можете удалять свои сообщения
    Вы не можете голосовать в опросах
    Вы не можете прикреплять файлы к сообщениям
    Вы не можете скачивать файлы