BitTorrentTracker PerecTracker.org
BitTorrentTracker PerecTracker.org
    
Регистрация  ·  Вход
 
 · 
Забыли пароль?

  • Любой ценой (Анатолий Слесаренко) [1959, Военная драма, приключения, VHSRip]

    Ответить на тему
     
    Автор Сообщение

    Light

    Создавать темы 13-Мар-2015 22:57

           

    [Цитировать]

    Любой ценой
    Жанр: Военная драма, приключения
    Выпущено: СССР, Ялтинская киностудия
    Год выпуска: 1959
    Продолжительность: 01:20:36

    Режиссёр: Анатолий Слесаренко
    В ролях: Вова Силуянов, Витя Авдеев, Ада Войцик, Павел Усовниченко, Ольга Жизнева, Владимир Кенигсон, Владимир Пицек, Андрей Файт, Ю. Прокопенко, Михаил Орлов, Иван Савкин, Сергей Петров, Григорий Плужник
    Описание: Подпольщики города Николаева захватили в плен немецкого офицера Швальдера. Он сообщил очень важные секретные сведения, которые нужно срочно передать на Большую землю. Но как это сделать ? По радио - невозможно : текст шифрованной телеграммы может попасть в руки врагов. Ответственное задание перебраться через линию фронта и доставить пакет главнокомандующему поручают двум юным разведчикам Вите Остапенко и Шуре Гончару. Идти им приходится по оккупированной немцами территории. Кругом разрушенные города, сожженные села, трупы замученных. Чем ближе линия фронта, тем сложнее путь ребят....
    Доп. информация: Релиз:, рип vova68
    Премьера: 12 сентября 1960 (СССР)
    Семпл: http://multi-up.com/1034782
    Качество видео: VHSRip
    Формат видео: AVI

    Видео: 688x512 (1.34:1), 25 fps, DivX Codec 5.x or 6.x ~2115 kbps avg, 0.24 bit/pixel
    Аудио: 48 kHz, MPEG Layer 3, 2 ch, ~128.00 kbps avg

    MediaInfo

    Общее
    Полное имя : D:\Любой ценой.1959.avi
    Формат : AVI
    Формат/Информация : Audio Video Interleave
    Размер файла : 1,27 Гбайт
    Продолжительность : 1 ч. 20 м.
    Общий поток : 2253 Кбит/сек
    Программа кодирования : VirtualDubModRus 1.5.10.2 (build 2540/release)
    Библиотека кодирования : VirtualDubMod build 2540/release
    Видео
    Идентификатор : 0
    Формат : MPEG-4 Visual
    Параметр BVOP формата : 1
    Параметр QPel формата : Нет
    Параметр GMC формата : Без точки перехода
    Параметр матрицы формата : Default (H.263)
    Режим смешивания : Сжатый битовый поток
    Идентификатор кодека : DX50
    Идентификатор кодека/Подсказка : DivX 5
    Продолжительность : 1 ч. 20 м.
    Битрейт : 2116 Кбит/сек
    Ширина : 688 пикселей
    Высота : 512 пикселей
    Соотношение сторон : 4:3
    Частота кадров : 25,000 кадров/сек
    Цветовое пространство : YUV
    Субдискретизация насыщенности : 4:2:0
    Битовая глубина : 8 бит
    Тип развёртки : Прогрессивная
    Метод сжатия : С потерями
    Бит/(Пиксели*Кадры) : 0.240
    Размер потока : 1,19 Гбайт (94%)
    Библиотека кодирования : DivX 6.8.5 (UTC 2009-08-20)
    Аудио
    Идентификатор : 1
    Формат : MPEG Audio
    Версия формата : Version 1
    Профиль формата : Layer 3
    Режим : Joint stereo
    Расширение режима : MS Stereo
    Идентификатор кодека : 55
    Идентификатор кодека/Подсказка : MP3
    Продолжительность : 1 ч. 20 м.
    Вид битрейта : Постоянный
    Битрейт : 128 Кбит/сек
    Каналы : 2 канала
    Частота : 48,0 КГц
    Метод сжатия : С потерями
    Размер потока : 73,8 Мбайт (6%)
    Выравнивание : Соединение по промежуткам
    Продолжительность промежутка : 40 мс. (1,00 видеокадр)
    Время предзагрузки промежутка : 504 мс.
    Библиотека кодирования : LAME3.97b
    Настройки программы : -m j -V 4 -q 2 -lowpass 17 -b 128

    Скриншоты

    Скачать .torrent

    Скачать торрент-файл бесплатно и на максимальной скорости!

    Как скачивать? · Что такое торрент? · Рейтинг и ограничения

    !ВНИМАНИЕ!
    Сайт не распространяет и не хранит электронные версии произведений, а занимается лишь лишь предоставлением доступа к создаваемому пользователями каталогу ссылок на торрент-файлы, которые содержат только списки хеш-сумм, убедительная просьба с жалобами обращаться напрямую к пользователю. Файлы для обмена на трекере предоставлены пользователями сайта, и администрация не несёт ответственности за их содержание. Просьба не заливать файлы, защищенные авторскими правами, а также файлы нелегального содержания!


    _________________
    [Профиль] [ЛС]
    Показать сообщения:    
    Ответить на тему

    Текущее время: Сегодня, в 00:05

    Часовой пояс: GMT + 2



    Вы не можете начинать темы
    Вы не можете отвечать на сообщения
    Вы не можете редактировать свои сообщения
    Вы не можете удалять свои сообщения
    Вы не можете голосовать в опросах
    Вы не можете прикреплять файлы к сообщениям
    Вы не можете скачивать файлы