BitTorrentTracker PerecTracker.org
BitTorrentTracker PerecTracker.org
    
Регистрация  ·  Вход
 
 · 
Забыли пароль?

  • Нормандия - Неман (Жан Древиль) [1959, военный фильм, DVB]

    Ответить на тему
     
    Автор Сообщение

    Light

    Создавать темы 13-Мар-2015 22:56

           

    [Цитировать]

    Нормандия - Неман
    24.02.15 торрент обновлен, запись трансляции ТК "Дом Кино" заменена на запись трансляции ТК "Доверие". Преимущества на сравнении, на видео местами баннер с названием фильма, смотрим 1-й скрин
    Жанр: военный фильм
    Год выпуска: 1959
    Продолжительность: 01:53:42
    Режиссёр: Жан Древиль
    В ролях: Николай Рыбников, Пьер Трабо, Жани Эспозито, Жерар Даррьё, Андре Умански, Жак Ришар, Жорж Ривьер, Жан-Клод Мишель, Николя Батай, Марк Кассо, Ролан Шалос, Жан Убе, Ришар Винклер, Владимир Бамдасов, Владимир Гусев, Виталий Доронин, Николай Лебедев, Юрий Медведев, Валентин Гафт, Нина Гребешкова, Валентин Кулик, Олег Мокшанцев, Владимир Соловьёв, Наталья Крачковская, Ян Янакиев, Елена Вольская
    Описание: О боевой деятельности летчиков французской эскадрильи "Нормандия-Неман", сражавшихся в годы Великой Отечественной войны в рядах Советских вооруженных сил.

    Доп. информация: Запись потока *.ts со спутника EUTELSAT, микширование в *.mpg программой VideoReDo.
    Качество видео: DVB
    Формат видео: MPEG-PS
    Видео: MPEG Video, 720(768)x576 (4:3), 25,000 кадров/сек, 3 185 Кбит/сек
    Аудио: MPEG Audio, 48,0 КГц, 192 Кбит/сек, 2 канала

    MediaInfo

    General
    Complete name : X:\Torrent\Нормандия - Неман (Moskva Doverie 75).mpg
    Format : MPEG-PS
    File size : 2.74 GiB
    Duration : 1h 53mn
    Overall bit rate mode : Variable
    Overall bit rate : 3 446 Kbps
    Video
    ID : 224 (0xE0)
    Format : MPEG Video
    Format version : Version 2
    Format profile : Main@Main
    Format settings, BVOP : Yes
    Format settings, Matrix : Custom
    Duration : 1h 53mn
    Bit rate mode : Variable
    Bit rate : 3 185 Kbps
    Maximum bit rate : 15.0 Mbps
    Width : 720 pixels
    Height : 576 pixels
    Display aspect ratio : 4:3
    Frame rate : 25.000 fps
    Standard : PAL
    Color space : YUV
    Chroma subsampling : 4:2:0
    Bit depth : 8 bits
    Scan type : Interlaced
    Scan order : Top Field First
    Compression mode : Lossy
    Bits/(Pixel*Frame) : 0.307
    Stream size : 2.53 GiB (92%)
    Audio
    ID : 192 (0xC0)
    Format : MPEG Audio
    Format version : Version 1
    Format profile : Layer 2
    Duration : 1h 53mn
    Bit rate mode : Constant
    Bit rate : 192 Kbps
    Channel(s) : 2 channels
    Sampling rate : 48.0 KHz
    Compression mode : Lossy
    Delay relative to video : 19ms
    Stream size : 156 MiB (6%)

    Скриншоты

    Скачать .torrent

    Скачать торрент-файл бесплатно и на максимальной скорости!

    Как скачивать? · Что такое торрент? · Рейтинг и ограничения

    !ВНИМАНИЕ!
    Сайт не распространяет и не хранит электронные версии произведений, а занимается лишь лишь предоставлением доступа к создаваемому пользователями каталогу ссылок на торрент-файлы, которые содержат только списки хеш-сумм, убедительная просьба с жалобами обращаться напрямую к пользователю. Файлы для обмена на трекере предоставлены пользователями сайта, и администрация не несёт ответственности за их содержание. Просьба не заливать файлы, защищенные авторскими правами, а также файлы нелегального содержания!


    _________________
    [Профиль] [ЛС]
    Показать сообщения:    
    Ответить на тему

    Текущее время: Сегодня, в 16:20

    Часовой пояс: GMT + 2



    Вы не можете начинать темы
    Вы не можете отвечать на сообщения
    Вы не можете редактировать свои сообщения
    Вы не можете удалять свои сообщения
    Вы не можете голосовать в опросах
    Вы не можете прикреплять файлы к сообщениям
    Вы не можете скачивать файлы