Register  ·  Log in
Forgot password?

  • Нормандия - Неман (Жан Древиль) [1959, военный фильм, DVB]

    Reply to topic
    Author Message


    Post 13-Mar-2015 23:56



    Нормандия - Неман
    24.02.15 торрент обновлен, запись трансляции ТК "Дом Кино" заменена на запись трансляции ТК "Доверие". Преимущества на сравнении, на видео местами баннер с названием фильма, смотрим 1-й скрин
    Жанр: военный фильм
    Год выпуска: 1959
    Продолжительность: 01:53:42
    Режиссёр: Жан Древиль
    В ролях: Николай Рыбников, Пьер Трабо, Жани Эспозито, Жерар Даррьё, Андре Умански, Жак Ришар, Жорж Ривьер, Жан-Клод Мишель, Николя Батай, Марк Кассо, Ролан Шалос, Жан Убе, Ришар Винклер, Владимир Бамдасов, Владимир Гусев, Виталий Доронин, Николай Лебедев, Юрий Медведев, Валентин Гафт, Нина Гребешкова, Валентин Кулик, Олег Мокшанцев, Владимир Соловьёв, Наталья Крачковская, Ян Янакиев, Елена Вольская
    Описание: О боевой деятельности летчиков французской эскадрильи "Нормандия-Неман", сражавшихся в годы Великой Отечественной войны в рядах Советских вооруженных сил.

    Доп. информация: Запись потока *.ts со спутника EUTELSAT, микширование в *.mpg программой VideoReDo.
    Качество видео: DVB
    Формат видео: MPEG-PS
    Видео: MPEG Video, 720(768)x576 (4:3), 25,000 кадров/сек, 3 185 Кбит/сек
    Аудио: MPEG Audio, 48,0 КГц, 192 Кбит/сек, 2 канала


    Complete name : X:\Torrent\Нормандия - Неман (Moskva Doverie 75).mpg
    Format : MPEG-PS
    File size : 2.74 GiB
    Duration : 1h 53mn
    Overall bit rate mode : Variable
    Overall bit rate : 3 446 Kbps
    ID : 224 (0xE0)
    Format : MPEG Video
    Format version : Version 2
    Format profile : Main@Main
    Format settings, BVOP : Yes
    Format settings, Matrix : Custom
    Duration : 1h 53mn
    Bit rate mode : Variable
    Bit rate : 3 185 Kbps
    Maximum bit rate : 15.0 Mbps
    Width : 720 pixels
    Height : 576 pixels
    Display aspect ratio : 4:3
    Frame rate : 25.000 fps
    Standard : PAL
    Color space : YUV
    Chroma subsampling : 4:2:0
    Bit depth : 8 bits
    Scan type : Interlaced
    Scan order : Top Field First
    Compression mode : Lossy
    Bits/(Pixel*Frame) : 0.307
    Stream size : 2.53 GiB (92%)
    ID : 192 (0xC0)
    Format : MPEG Audio
    Format version : Version 1
    Format profile : Layer 2
    Duration : 1h 53mn
    Bit rate mode : Constant
    Bit rate : 192 Kbps
    Channel(s) : 2 channels
    Sampling rate : 48.0 KHz
    Compression mode : Lossy
    Delay relative to video : 19ms
    Stream size : 156 MiB (6%)


    Download .torrent

    Download free and at maximum speed!

    How to Download? · What is a torrent? · Ratings and Limitations

    The site does not extend and does not store electronic(digital) versions of products, and only gives access to a reference catalogue created by users on torrent-files which contain only lists of the hash-sums, the earnest entreaty, with complaints(abuse) to access directly to the user. Files for an exchange on tracker are given by users of a site, and the administration does not bear the responsibility for their maintenance. The request to not fill in the files protected by copyrights, and also files of the illegal maintenance!

    [Profile] [PM]
    Display posts from previous:    
    Reply to topic

    The time now is: Today 22:20

    All times are GMT + 3 Hours

    You cannot post new topics in this forum
    You cannot reply to topics in this forum
    You cannot edit your posts in this forum
    You cannot delete your posts in this forum
    You cannot vote in polls in this forum
    You cannot attach files in this forum
    You cannot download files in this forum