Register  ·  Log in
Forgot password?

  • Страсти по Владимиру (Марк Розовский) [1990, сатирическая комедия, DVB-AVC]

    Reply to topic
    Author Message


    Post 13-Mar-2015 23:56



    Страсти по Владимиру
    Жанр: сатирическая комедия
    Год выпуска: 1990
    Продолжительность: 01:54:28
    Режиссёр: Марк Розовский
    В ролях: Владимир Долинский, Галина Борисова, Вера Улик, Игорь Старосельцев, Александр Лукаш, Семён Фарада, Петр Козюлин, Александр Иванов, Александр Столяров, Александр Вилков, Юрий Голубцов, Александр Миронов, Андрей Молотков, Андрей Ургант, Владимир Юматов, Алексей Селезнев
    Описание: Действие фильма происходит в кабинете руководителя одного из НИИ. Решается проблема быть или не быть концерту Высоцкого в клубе института. Начальство категорически против, но все сотрудники уже оповещены и с нетерпением ожидают выступления любимого артиста...
    Доп. информация: ремукс записи потока *.ts в *.mkv программой VideoReDo.
    На видео местами баннеры. На финальные титры наложена реклама-анонс (см. 2 последних скриншота). Из-за этого продолжительность на минуту меньше, чем в других раздачах. На усмотрение модераторов.
    Качество видео: DVB-AVC
    Формат видео: MKV
    Видео: AVC (H264), 720x576@785x576 (4:3), анаморф, 25 fps, 2109 kbps
    Аудио: MP2, 256 kbps, 2 channels, 48 kHz


    GeneralUnique ID : 44687274885264338355895755352943262246 (0x219E74C1E2B67C23016B1A0B00C27A26)Complete name : D:\Work\Video\Концерт в НИИ\Страсти по Владимиру.mkvFormat : MatroskaFormat version : Version 2File size : 1.93 GiBDuration : 1h 54mnOverall bit rate : 2 413 KbpsWriting application : Lavf52.64.2Writing library : Lavf52.64.2
    VideoID : 1Format : AVCFormat/Info : Advanced Video CodecFormat profile : Main@L3.0Format settings, CABAC : YesFormat settings, ReFrames : 4 framesFormat settings, GOP : M=4, N=24Codec ID : V_MPEG4/ISO/AVCDuration : 1h 54mnBit rate : 2 109 KbpsWidth : 720 pixelsHeight : 576 pixelsDisplay aspect ratio : 4:3Original display aspect ratio : 4:3Frame rate mode : ConstantFrame rate : 25.000 fpsStandard : PALColor space : YUVChroma subsampling : 4:2:0Bit depth : 8 bitsScan type : MBAFFScan order : Top Field FirstBits/(Pixel*Frame) : 0.203Stream size : 1.69 GiB (87%)Default : YesForced : NoColor primaries : BT.601 PALTransfer characteristics : BT.470 System B, BT.470 System GMatrix coefficients : BT.601Color range : Limited
    AudioID : 2Format : MPEG AudioFormat version : Version 1Format profile : Layer 2Codec ID : A_MPEG/L2Codec ID/Hint : MP2Duration : 1h 54mnBit rate mode : ConstantBit rate : 256 KbpsChannel(s) : 2 channelsSampling rate : 48.0 KHzCompression mode : LossyStream size : 210 MiB (11%)Language : EnglishDefault : YesForced : No


    Download .torrent

    Download free and at maximum speed!

    How to Download? · What is a torrent? · Ratings and Limitations

    The site does not extend and does not store electronic(digital) versions of products, and only gives access to a reference catalogue created by users on torrent-files which contain only lists of the hash-sums, the earnest entreaty, with complaints(abuse) to access directly to the user. Files for an exchange on tracker are given by users of a site, and the administration does not bear the responsibility for their maintenance. The request to not fill in the files protected by copyrights, and also files of the illegal maintenance!

    [Profile] [PM]
    Display posts from previous:    
    Reply to topic

    The time now is: Today 06:38

    All times are GMT + 3 Hours

    You cannot post new topics in this forum
    You cannot reply to topics in this forum
    You cannot edit your posts in this forum
    You cannot delete your posts in this forum
    You cannot vote in polls in this forum
    You cannot attach files in this forum
    You cannot download files in this forum