BitTorrentTracker PerecTracker.org
BitTorrentTracker PerecTracker.org
    
Регистрация  ·  Вход
 
 · 
Забыли пароль?

  • Нормандия - Неман / Normandie – Niémen (Жан Древиль / Jean Dréville) [1959, Драма, военный, SATRip]

    Ответить на тему
     
    Автор Сообщение

    Light

    Создавать темы 13-Мар-2015 22:56

           

    [Цитировать]

    Нормандия - Неман / Normandie – Niémen
    Жанр: Драма, военный
    Страна: СССР, Франция
    Студия: Мосфильм, Franco London Films, Les Films Alkam
    Год выпуска: 1959
    Продолжительность: 01:53:44.479 (170612 frames)
    Режиссёр: Жан Древиль / Jean Dréville
    В ролях:
    Виталий Доронин … генерал Комаров, командир авиадивизии
    Николай Лебедев … полковник Синицын, командир авиаполка
    Владимир Бамдасов … инженер-капитан Сарьян, инженер полка (в титрах - В.Бамдас)
    Владимир Гусев … Алексей Зыков, лётчик-ас, Герой Советского Союза
    Николай Рыбников … капитан Тарасенко
    Юрий Медведев … старшина Иванов, бортмеханик самолёта де Буасси
    Марк Кассо … майор Марселен, первый командир "Нормандии"
    Жан-Клод Мишель … майор Флавье, второй командир "Нормандии"
    Жорж Ривьер … Марсель Бенуа, бывший механик из Фонтэна
    Ролан Менар … Роман де Вильмон, маркиз
    Пьер Трабо … Шардон
    Жани Эспозито … Леметр, бывший школьный учитель
    Жак Ришар … Колен
    Жан Убе … барон де Буасси
    Жерар Даррьё … ле Ген
    Андре Умански … Дюпон (в титрах - Андрей Уманский)
    Ролан Шалос … Жорж Лебединский, доктор
    Николя Батай … Кастор, переводчик, нотариус эскадрильи (в титрах - Николай Батай)
    Геннадий Юхтин … старший техник
    Валентин Гафт … Милле
    Валентин Кулик … лейтенант Леви
    Ян Янакиев … Жавот
    Олег Мокшанцев … майор, первым встретивший французов на территории СССР
    Описание: О боевой деятельности летчиков французской эскадрильи "Нормандия-Неман", сражавшихся в годы Великой Отечественной войны в рядах Советских вооруженных сил.
    Дополнительная информация:
    Автор рипа: pmv
    Большое спасибо за:
    - Исходник DVB (http://perectracker.org/viewtopic.php?t=4124453) - Cheef mate
    (Запись потока *.ts со спутника EUTELSAT, с ТК «Москва-Доверие»)
    IMDb = 6,7/10 from 84 users - http://www.imdb.com/title/tt0141666/
    Кинопоиск = 7.580 (421) - http://www.kinopoisk.ru/film/46463
    * Брюссель, 1961 год
    - Приз "За фильм, способствующий делу мира".
    * На видео местами баннер с названием фильма, смотрим 1-й скрин
    * Лётчики славной французской эскадрильи "Нормандия-Неман", сражавшиеся в годы Второй мировой войны в российском небе и погибшие в боях, похоронены в братской могиле на Введенском кладбище (в народе его называют "немецким") в Москве.

    ПРОСЬБА к СКАЧАВШИМ. НЕ УХОДИТЕ С РАЗДАЧИ, ПОМОГИТЕ ДРУГИМ СКАЧАТЬ!!!
    Качество видео: SATRip
    Формат видео: AVI
    Видео: 720x528 (1.36:1), 25 fps, XviD build 73 ~1693 kbps avg, 0.18 bit/pixel
    Аудио: 48 kHz, MPEG Layer 3, 2 ch, ~128.00 kbps avg

    MediaInfo

    General
    Complete name : D:\torrents\Нормандия - Неман (1959).avi
    Format : AVI
    Format/Info : Audio Video Interleave
    File size : 1.45 GiB
    Duration : 1h 53mn
    Overall bit rate : 1 831 Kbps
    Writing library : VirtualDub build 35576/release
    Video
    ID : 0
    Format : MPEG-4 Visual
    Format profile : Advanced Simple@L5
    Format settings, BVOP : Yes
    Format settings, QPel : No
    Format settings, GMC : No warppoints
    Format settings, Matrix : Default (H.263)
    Codec ID : XVID
    Codec ID/Hint : XviD
    Duration : 1h 53mn
    Bit rate : 1 693 Kbps
    Width : 720 pixels
    Height : 528 pixels
    Display aspect ratio : 4:3
    Frame rate : 25.000 fps
    Resolution : 8 bits
    Colorimetry : 4:2:0
    Scan type : Progressive
    Bits/(Pixel*Frame) : 0.178
    Stream size : 1.35 GiB (92%)
    Writing library : XviD 73
    Audio
    ID : 1
    Format : MPEG Audio
    Format version : Version 1
    Format profile : Layer 3
    Format_Settings_Mode : Joint stereo
    Codec ID : 55
    Codec ID/Hint : MP3
    Duration : 1h 53mn
    Bit rate mode : Constant
    Bit rate : 128 Kbps
    Channel(s) : 2 channels
    Sampling rate : 48.0 KHz
    Video delay : 20ms
    Stream size : 104 MiB (7%)
    Alignment : Split accross interleaves
    Interleave, duration : 40 ms (1.00 video frame)
    Interleave, preload duration : 500 ms

    Скриншот с названием фильма

    Скриншоты

    Сравнения

    intellect, 672 х 512, DVDrip, 1.38 Gb < > CaCa48, 720 x 528, SATrip, 1.45 Gb
    http://perectracker.org/viewtopic.php?t=947668
    http://screenshotcomparison.com/comparison/113510
    Skive, 640 х 480, TVrip, 1.36 Gb < > CaCa48, 720 x 528, SATrip, 1.45 Gb
    http://perectracker.org/viewtopic.php?t=311710
    http://screenshotcomparison.com/comparison/113511
    МОИ РАЗДАЧИ НА РУТРЕКЕРЕ: http://perectracker.org/tracker.php?rid=27390064
    Скачать .torrent

    Скачать торрент-файл бесплатно и на максимальной скорости!

    Как скачивать? · Что такое торрент? · Рейтинг и ограничения

    !ВНИМАНИЕ!
    Сайт не распространяет и не хранит электронные версии произведений, а занимается лишь лишь предоставлением доступа к создаваемому пользователями каталогу ссылок на торрент-файлы, которые содержат только списки хеш-сумм, убедительная просьба с жалобами обращаться напрямую к пользователю. Файлы для обмена на трекере предоставлены пользователями сайта, и администрация не несёт ответственности за их содержание. Просьба не заливать файлы, защищенные авторскими правами, а также файлы нелегального содержания!


    _________________
    [Профиль] [ЛС]
    Показать сообщения:    
    Ответить на тему

    Текущее время: Сегодня, в 05:25

    Часовой пояс: GMT + 2



    Вы не можете начинать темы
    Вы не можете отвечать на сообщения
    Вы не можете редактировать свои сообщения
    Вы не можете удалять свои сообщения
    Вы не можете голосовать в опросах
    Вы не можете прикреплять файлы к сообщениям
    Вы не можете скачивать файлы