BitTorrentTracker PerecTracker.org
BitTorrentTracker PerecTracker.org
    
Регистрация  ·  Вход
 
 · 
Забыли пароль?

  • Странник (Михаил Ведышев) [1987, исторический фильм, приключения, экранизация, DVB-AVC]

    Ответить на тему
     
    Автор Сообщение

    Light

    Создавать темы 13-Мар-2015 22:56

           

    [Цитировать]

    Странник
    Жанр: исторический фильм, приключения, экранизация
    Год выпуска: 1987
    Продолжительность: 01:36:44
    Режиссёр: Михаил Ведышев
    В ролях: Александр Трофимов, Геннадий Горячев, Алексей Булдаков, Виктор Давыдов, Станислав Лесной, Вадим Гемс, Андрей Бубашкин, Сергей Максачев, Александр Чижов, Олег Жданов, Илзе Лиепа, Сергей Плотников, Андрей Болтнев, Александр Краснов, Анатолий Гуляев, Владимир Цветков
    Описание: Героико-приключенческий фильм по мотивам повести Е. Федоровского «Свежий ветер океана». 1820 год. Впервые в истории мореплавания два российских корабля "Восток" и "Мирный" достигли берегов Антарктиды. Завоевания экспедиции Беллинсгаузена и Лазарева тогда были поставлены под сомнение морскими державами. И теперь в 40-е годы ХХ века молодой ленинградский ученый Головин, долгие годы отдавший поискам карт экспедиции, обнаруживает на оккупированной немцами территории документы военно-морского архива...
    Доп. информация: ремукс записи потока *.ts в *.mkv программой VideoReDo. На видео местами баннеры (см. последний скриншот).
    Производство: Киностудия им. М. Горького (Ялтинский филиал)
    Сценарист: Эдуард Володарский
    Оператор: Александр Филатов
    Композитор: Шандор Каллош
    Художник: Валерий Иванов
    Семпл: http://multi-up.com/1035416
    Качество видео: DVB-AVC
    Формат видео: MKV
    Видео: AVC (H264), 720x576@785x576 (4:3), анаморф, 25 fps, 2108 kbps
    Аудио: MP2, 256 kbps, 2 channels, 48 kHz

    MediaInfo

    GeneralUnique ID : 55601467205308235163846982095595272108 (0x29D473FC04E5F21BFB3916A9A89E77AC)Complete name : D:\Work\Video\Странник\Странник.mkvFormat : MatroskaFormat version : Version 2File size : 1.63 GiBDuration : 1h 36mnOverall bit rate : 2 412 KbpsWriting application : Lavf52.64.2Writing library : Lavf52.64.2
    VideoID : 1Format : AVCFormat/Info : Advanced Video CodecFormat profile : Main@L3.0Format settings, CABAC : YesFormat settings, ReFrames : 4 framesFormat settings, GOP : M=4, N=24Codec ID : V_MPEG4/ISO/AVCDuration : 1h 36mnBit rate : 2 108 KbpsWidth : 720 pixelsHeight : 576 pixelsDisplay aspect ratio : 4:3Original display aspect ratio : 4:3Frame rate mode : ConstantFrame rate : 25.000 fpsStandard : PALColor space : YUVChroma subsampling : 4:2:0Bit depth : 8 bitsScan type : MBAFFScan order : Top Field FirstBits/(Pixel*Frame) : 0.203Stream size : 1.42 GiB (87%)Default : YesForced : NoColor primaries : BT.601 PALTransfer characteristics : BT.470 System B, BT.470 System GMatrix coefficients : BT.601Color range : Limited
    AudioID : 2Format : MPEG AudioFormat version : Version 1Format profile : Layer 2Codec ID : A_MPEG/L2Codec ID/Hint : MP2Duration : 1h 36mnBit rate mode : ConstantBit rate : 256 KbpsChannel(s) : 2 channelsSampling rate : 48.0 KHzCompression mode : LossyStream size : 177 MiB (11%)Language : EnglishDefault : YesForced : No

    Скриншоты

    Скачать .torrent

    Скачать торрент-файл бесплатно и на максимальной скорости!

    Как скачивать? · Что такое торрент? · Рейтинг и ограничения

    !ВНИМАНИЕ!
    Сайт не распространяет и не хранит электронные версии произведений, а занимается лишь лишь предоставлением доступа к создаваемому пользователями каталогу ссылок на торрент-файлы, которые содержат только списки хеш-сумм, убедительная просьба с жалобами обращаться напрямую к пользователю. Файлы для обмена на трекере предоставлены пользователями сайта, и администрация не несёт ответственности за их содержание. Просьба не заливать файлы, защищенные авторскими правами, а также файлы нелегального содержания!


    _________________
    [Профиль] [ЛС]
    Показать сообщения:    
    Ответить на тему

    Текущее время: Сегодня, в 19:31

    Часовой пояс: GMT + 2



    Вы не можете начинать темы
    Вы не можете отвечать на сообщения
    Вы не можете редактировать свои сообщения
    Вы не можете удалять свои сообщения
    Вы не можете голосовать в опросах
    Вы не можете прикреплять файлы к сообщениям
    Вы не можете скачивать файлы