BitTorrentTracker PerecTracker.org
BitTorrentTracker PerecTracker.org
    
Регистрация  ·  Вход
 
 · 
Забыли пароль?

  • Призраки Зеленой комнаты (Юрий Борецкий) [1991, Фильм-воспоминание, лирическая драма, TVRip]

    Ответить на тему
     
    Автор Сообщение

    Light

    Создавать темы 13-Мар-2015 22:56

           

    [Цитировать]

    Призраки Зеленой комнаты
    Жанр: Фильм-воспоминание, лирическая драма
    Год выпуска: 1991
    Продолжительность: 01:12:56
    Производство: Россия-Украина.Киностудия "Ялтафильм", кинообъединение "Флок" совместного советско-индийского предприятия "Совиндпред".
    Режиссёр: Юрий Борецкий
    Автор сценария: Елизавета Смирнова.
    Оператор: Владимир Дмитриенко.
    Художник-постановщик: Борис Комяков.
    Композитор: Евгений Птичкин.
    Звукорежиссер: Владимир Каплан.
    Монтаж: Евгения Квятковская.
    В ролях: Ирина Скобцева(Паулина Фрезерс), Вячеслав Тихонов (Мартин Чиверел), Анна Тихонова(Дженни Вильерс и Энн Сьюард), Дмитрий Писаренко(Джулиан Нэпье и Роберт Пик), Александр Пономарев(Уолтер Кеттл), Роман Филиппов(Альфред З.Лазерс и Джон Стоукс), Юрий Саранцев(Отли), Виталий Беляков(Эдмунд Лэдлоу), Нина Меньшикова(Миссис Лэдлоу), Анна Фроловцева(Сара), Павел Винник(Сэм Мун), Галикс Колчицкий(Доктор Кейв), Артем Карапетян(Джакоб Манглс), Нина Крачковская(сиделка), Глеб Плаксин(мэр), Игорь Пушкарев(журналист), Владимир Прохоров(трактирщик), Владимир Неяченко(Уайтфут).
    Описание: По повести Дж.Б.Пристли «Дженни Вильерс».
    В Зеленой комнате города Бартон-Спа, своеобразном театральном музее, перед премьерой собрались актеры Лондонского театра. Драматург Мартин Чиверел высказывает свои сомнения о том, что театр способен обрести былое очарование. Когда он оказывается один в Зеленой комнате, то становится свидетелем очень необычных событий. Перед ним предстают многие актеры уже ушедшего века. Здесь разыгрывается нешуточная драма, которой уже исполнилось сто лет. Главный герой переживет множественные эмоции и чувства, он начнет паниковать и, в конечном итоге, совершенно по-другому взглянет и на театр, и на его дальнейшее будущее.
    Доп. информация: Огромная благодарность Борт_0017 за предоставленный исходник (http://perectracker.org/viewtopic.php?t=3204904).
    Убраны рекламные баннеры, бегущая строка и логотип телеканала, немного ослаблен шум на картинке.
    Семпл: http://rusfolder.com/43080516
    Качество видео: TVRip
    Формат видео: AVI
    Видео: DivX 5; 640х480 (4:3); 25 fps; 2400 Кбит/сек
    Аудио: MPEG Audio Version 1 Layer 3; 2 ch; 256 Кбит/сек; 48,0 КГц

    MediaInfo

    Общее
    Полное имя : D:\TORRENTS\Призраки Зеленой комнаты_1,35.DivX\Призраки Зеленой комнаты.avi
    Формат : AVI
    Формат/Информация : Audio Video Interleave
    Размер файла : 1,36 Гбайт
    Продолжительность : 1 ч. 12 м.
    Общий поток : 2665 Кбит/сек
    Библиотека кодирования : VirtualDub build 35491/release
    Видео
    Идентификатор : 0
    Формат : MPEG-4 Visual
    Параметр BVOP формата : Да
    Параметр QPel формата : Нет
    Параметр GMC формата : Без точки перехода
    Параметр матрицы формата : Default (H.263)
    Идентификатор кодека : DX50
    Идентификатор кодека/Подсказка : DivX 5
    Продолжительность : 1 ч. 12 м.
    Битрейт : 2400 Кбит/сек
    Ширина : 640 пикселей
    Высота : 480 пикселей
    Соотношение сторон : 4:3
    Частота кадров : 25,000 кадров/сек
    Цветовое пространство : YUV
    Субдискретизация насыщенности : 4:2:0
    Битовая глубина : 8 бит
    Тип развёртки : Прогрессивная
    Метод сжатия : С потерями
    Бит/(Пиксели*Кадры) : 0.312
    Размер потока : 1,22 Гбайт (90%)
    Библиотека кодирования : DivX 6.8.3-6.8.4 (UTC 2008-06-07)
    Аудио
    Идентификатор : 1
    Формат : MPEG Audio
    Версия формата : Version 1
    Профиль формата : Layer 3
    Режим : Joint stereo
    Идентификатор кодека : 55
    Идентификатор кодека/Подсказка : MP3
    Продолжительность : 1 ч. 12 м.
    Вид битрейта : Постоянный
    Битрейт : 256 Кбит/сек
    Каналы : 2 канала
    Частота : 48,0 КГц
    Метод сжатия : С потерями
    Размер потока : 134 Мбайт (10%)
    Выравнивание : Разделение по промежуткам
    Продолжительность промежутка : 40 мс. (1,00 видеокадр)
    Время предзагрузки промежутка : 500 мс.

    Скриншоты

    Скачать .torrent

    Скачать торрент-файл бесплатно и на максимальной скорости!

    Как скачивать? · Что такое торрент? · Рейтинг и ограничения

    !ВНИМАНИЕ!
    Сайт не распространяет и не хранит электронные версии произведений, а занимается лишь лишь предоставлением доступа к создаваемому пользователями каталогу ссылок на торрент-файлы, которые содержат только списки хеш-сумм, убедительная просьба с жалобами обращаться напрямую к пользователю. Файлы для обмена на трекере предоставлены пользователями сайта, и администрация не несёт ответственности за их содержание. Просьба не заливать файлы, защищенные авторскими правами, а также файлы нелегального содержания!


    _________________
    [Профиль] [ЛС]
    Показать сообщения:    
    Ответить на тему

    Текущее время: Сегодня, в 08:07

    Часовой пояс: GMT + 2



    Вы не можете начинать темы
    Вы не можете отвечать на сообщения
    Вы не можете редактировать свои сообщения
    Вы не можете удалять свои сообщения
    Вы не можете голосовать в опросах
    Вы не можете прикреплять файлы к сообщениям
    Вы не можете скачивать файлы