BitTorrentTracker PerecTracker.org
BitTorrentTracker PerecTracker.org
    
Регистрация  ·  Вход
 
 · 
Забыли пароль?

  • Путешествие в апрель (Вадим Дербенёв) [1962, мелодрама, комедия, WEB-DLRip]

    Ответить на тему
     
    Автор Сообщение

    Light

    Создавать темы 13-Мар-2015 22:56

           

    [Цитировать]

    Путешествие в апрель
    Жанр: мелодрама, комедия
    Год выпуска: 1962
    Продолжительность: 01:06:29
    Режиссёр: Вадим Дербенёв
    В ролях: Александр Збруев, Раиса Недашковская, Трифан Грузин, Женя Зоценко, Юлиан Флоря, Владимир Васильев, Ион Унгуряну, Валентина Избещук, Александра Назарова, Ирина Мурзаева, Константин Константинов, Ролан Быков, Дмитрий Капка, Думитру Фусу, И. Танасоглу, Александр Карпов, Илие Гуцу, Кэлин Маняцэ, И. Разумовская, А. Пролетова
    Описание: Студента-журналиста с большим нетерпением ждали в Нижних Лазуренах. Отправившись вниз по реке на суденышке, студент переусердствовал — и вышел в Верхних Лазуренах, где цвели яблоневые сады, пели птицы и где жила красавица Мария, из-за которой он так и не смог добраться до места назначения…
    Доп. информация: Фильм был запрещён после разгона Хрущёвым выставки произведений художников-авангардистов.
    Семпл: http://sendfile.su/1090570
    Качество видео: WEB-DLRip
    Формат видео: AVI
    Видео: XVID; 640х480; 4:3 ; 25.000 fps; 1 408 Kbps
    Аудио: Russian; MPEG Layer 3; 44,1KHz; 128 Kbps; mono

    MediaInfo

    General
    Format : AVI
    Format/Info : Audio Video Interleave
    File size : 736 MiB
    Duration : 1h 6mn
    Overall bit rate : 1 548 Kbps
    Writing application : MEncoder SVN-r22963
    Writing library : MPlayer
    Video #0
    ID : 0
    Format : MPEG-4 Visual
    Format profile : Simple@L1
    Format settings, BVOP : No
    Format settings, QPel : No
    Format settings, GMC : No warppoints
    Format settings, Matrix : Default (H.263)
    Codec ID : XVID
    Codec ID/Hint : XviD
    Duration : 1h 6mn
    Bit rate : 1 408 Kbps
    Width : 640 pixels
    Height : 480 pixels
    Display aspect ratio : 4:3
    Frame rate : 25.000 fps
    Color space : YUV
    Chroma subsampling : 4:2:0
    Bit depth : 8 bits
    Scan type : Progressive
    Compression mode : Lossy
    Bits/(Pixel*Frame) : 0.183
    Stream size : 670 MiB (91%)
    Writing library : Lavc51.40.2
    Audio #1
    ID : 1
    Format : MPEG Audio
    Format version : Version 1
    Format profile : Layer 3
    Codec ID : 55
    Codec ID/Hint : MP3
    Duration : 1h 6mn
    Bit rate mode : Constant
    Bit rate : 128 Kbps
    Channel(s) : 1 channel
    Sampling rate : 44.1 KHz
    Compression mode : Lossy
    Stream size : 60.9 MiB (8%)
    Alignment : Aligned on interleaves
    Interleave, duration : 26 ms (0.65 video frame)
    Interleave, preload duration : 522 ms
    Writing library : LAME3.97ЄЄЄЄЄЄЄЄЄЄЄ9

    Скриншоты








    Скачать .torrent

    Скачать торрент-файл бесплатно и на максимальной скорости!

    Как скачивать? · Что такое торрент? · Рейтинг и ограничения

    !ВНИМАНИЕ!
    Сайт не распространяет и не хранит электронные версии произведений, а занимается лишь лишь предоставлением доступа к создаваемому пользователями каталогу ссылок на торрент-файлы, которые содержат только списки хеш-сумм, убедительная просьба с жалобами обращаться напрямую к пользователю. Файлы для обмена на трекере предоставлены пользователями сайта, и администрация не несёт ответственности за их содержание. Просьба не заливать файлы, защищенные авторскими правами, а также файлы нелегального содержания!


    _________________
    [Профиль] [ЛС]
    Показать сообщения:    
    Ответить на тему

    Текущее время: Сегодня, в 16:43

    Часовой пояс: GMT + 2



    Вы не можете начинать темы
    Вы не можете отвечать на сообщения
    Вы не можете редактировать свои сообщения
    Вы не можете удалять свои сообщения
    Вы не можете голосовать в опросах
    Вы не можете прикреплять файлы к сообщениям
    Вы не можете скачивать файлы