BitTorrentTracker PerecTracker.org
BitTorrentTracker PerecTracker.org
    
Регистрация  ·  Вход
 
 · 
Забыли пароль?

  • Тринадцать (Михаил Ромм) [1936, приключения, военная драма, истерн, DVB]

    Ответить на тему
     
    Автор Сообщение

    Light

    Создавать темы 13-Мар-2015 22:56

           

    [Цитировать]

    Тринадцать
    Жанр: приключения, военная драма, истерн
    Год выпуска: 1936
    Продолжительность: 01:21:18
    Режиссёр: Михаил Ромм
    В ролях:
    Иван Новосельцев — командир Журавлёв
    Елена Кузьмина — Марья Николаевна
    Александр Чистяков — геолог Александр Петрович
    Андрей Файт — подполковник Скуратов
    Иван Кузнецов — Акчурин
    Виктор Кулаков — Баландин
    А. Долинин — Тимошкин
    Петр Масоха — Свириденко
    А. Кепинов — Мурадов
    П. Юдин — Петров
    Д. Зольц — Левкоев
    Степан Крылов — Журба
    А. Кулиев — Кулиев
    Описание: 20-е годы. Средняя Азия. Десять демобилизованных красноармейцев едут по пустыне до железной дороги. С ними ещё три человека: командир погранзаставы с женой и старик-геолог. В пустыне они находят колодец и спрятанные пулемёты — базу басмача Ширмат-хана, которого Красная армия не может обезвредить уже целый год. Отправив одного бойца за подмогой, остальные остаются, чтобы удержать басмачей.
    В колодце, впрочем, почти нет воды, но красноармейцы тщательно скрывают это от подошедших басмачей. Бандиты сильно страдают от жажды, но предпринимают яростные атаки в попытке добраться до колодца.
    Семпл: https://www.sendspace.com/file/knj334
    Качество видео: DVB
    Формат видео: TS
    Видео: MPEG2 720:576 4:3 3342 Кбит/сек 25,000 кадров/сек
    Аудио: MPEG Audio 128 Кбит/сек 48,0 КГц 2 канала

    MediaInfo

    Общее
    Идентификатор : 16 (0x10)
    Полное имя : Тринадцать .ts
    Формат : MPEG-TS
    Размер файла : 2,07 Гбайт
    Продолжительность : 1 ч. 21 м.
    Режим общего битрейта : Переменный
    Общий поток : 3652 Кбит/сек
    Видео
    Идентификатор : 221 (0xDD)
    Идентификатор меню : 3 (0x3)
    Формат : MPEG Video
    Версия формата : Version 2
    Профиль формата : Main@Main
    Параметр BVOP формата : Да
    Параметр матрицы формата : Выборочная
    Параметр GOP формата : M=3, N=24
    Идентификатор кодека : 2
    Продолжительность : 1 ч. 21 м.
    Битрейт : 3342 Кбит/сек
    Максимальный битрейт : 3400 Кбит/сек
    Ширина : 720 пикселей
    Высота : 576 пикселей
    Соотношение сторон : 4:3
    Частота кадров : 25,000 кадров/сек
    Стандарт вещания : PAL
    Цветовое пространство : YUV
    Субдискретизация насыщенности : 4:2:0
    Битовая глубина : 8 бит
    Тип развёртки : Чересстрочная
    Порядок развёртки : Верхнее поле первое
    Метод сжатия : С потерями
    Бит/(Пиксели*Кадры) : 0.322
    Временной код первого кадра : 00:00:00:00
    Оригинал временного кода : Group of pictures header
    Размер потока : 1,90 Гбайт (92%)
    Библиотека кодирования : (dvd5: Nov 27 2014)
    Аудио
    Идентификатор : 222 (0xDE)
    Идентификатор меню : 3 (0x3)
    Формат : MPEG Audio
    Версия формата : Version 1
    Профиль формата : Layer 2
    Идентификатор кодека : 3
    Продолжительность : 1 ч. 21 м.
    Вид битрейта : Постоянный
    Битрейт : 128 Кбит/сек
    Каналы : 2 канала
    Частота : 48,0 КГц
    Метод сжатия : С потерями
    Размер потока : 74,4 Мбайт (4%)

    Скриншоты

    Скачать .torrent

    Скачать торрент-файл бесплатно и на максимальной скорости!

    Как скачивать? · Что такое торрент? · Рейтинг и ограничения

    !ВНИМАНИЕ!
    Сайт не распространяет и не хранит электронные версии произведений, а занимается лишь лишь предоставлением доступа к создаваемому пользователями каталогу ссылок на торрент-файлы, которые содержат только списки хеш-сумм, убедительная просьба с жалобами обращаться напрямую к пользователю. Файлы для обмена на трекере предоставлены пользователями сайта, и администрация не несёт ответственности за их содержание. Просьба не заливать файлы, защищенные авторскими правами, а также файлы нелегального содержания!


    _________________
    [Профиль] [ЛС]
    Показать сообщения:    
    Ответить на тему

    Текущее время: Сегодня, в 13:54

    Часовой пояс: GMT + 2



    Вы не можете начинать темы
    Вы не можете отвечать на сообщения
    Вы не можете редактировать свои сообщения
    Вы не можете удалять свои сообщения
    Вы не можете голосовать в опросах
    Вы не можете прикреплять файлы к сообщениям
    Вы не можете скачивать файлы