BitTorrentTracker PerecTracker.org
BitTorrentTracker PerecTracker.org
    
Регистрация  ·  Вход
 
 · 
Забыли пароль?

  • Мама, родная, любимая (Николай Мащенко) [1986, Драма, DVDRip]

    Ответить на тему
     
    Автор Сообщение

    Light

    Создавать темы 13-Мар-2015 22:56

           

    [Цитировать]

    Мама, родная, любимая
    Жанр: Драма
    Год выпуска: 1986
    Продолжительность: 1:24:32
    Режиссёр: Николай Мащенко
    В ролях: Лидия Яремчук, Андрей Харитонов, Вилорий Пащенко, Владимир Талашко, Виктор Лазарев (II), Ада Роговцева, Станислав Станкевич, Григорий Гладий, Валентина Гришокина, Дмитрий Миргородский, Николай Олейник, Михаил Голубович, Евгений Паперный, Георгий Дрозд, Андрей Мороз, Константин Степанков, Леонид Яновский
    Описание: В 18 лет Татьяна вышла замуж за вдовца Максима и стала матерью его троих детей. Но вскоре от рук бандитов погибает муж, а родственники, стремясь завладеть хозяйством, выгоняют ее из дома. Спустя некоторое время Татьяна выходит замуж за Павла, отца четверых детей, и к 26-ти годам рожает ему трех сыновей. Но начинается война и с нею приходят в дом более тяжкие испытания...
    Доп. информация: Производство: Киносудия им. А.Довженко
    Семпл: https://www.sendspace.com/file/qpkite
    Качество видео: DVDRip
    Формат видео: AVI
    Видео: XviD MPEG-4 , 720x480 (1.50:1), 25 fps ,2 261 Kbps
    Аудио: AC3 , 48 kHz , 192.00 kbps avg , 2/0 (L,R) ch

    MediaInfo

    Complete name Мама,родная,любимая 1986.avi
    Format : AVI
    Format/Info : Audio Video Interleave
    File size : 1.45 GiB
    Duration : 1h 24mn
    Overall bit rate : 2 463 Kbps
    Writing library : VirtualDub build 35491/release
    Video
    ID : 0
    Format : MPEG-4 Visual
    Format profile : Advanced Simple@L5
    Format settings, BVOP : 2
    Format settings, QPel : No
    Format settings, GMC : No warppoints
    Format settings, Matrix : Default (H.263)
    Codec ID : XVID
    Codec ID/Hint : XviD
    Duration : 1h 24mn
    Bit rate : 2 261 Kbps
    Width : 720 pixels
    Height : 480 pixels
    Display aspect ratio : 3:2
    Frame rate : 25.000 fps
    Standard : NTSC
    Color space : YUV
    Chroma subsampling : 4:2:0
    Bit depth : 8 bits
    Scan type : Progressive
    Compression mode : Lossy
    Bits/(Pixel*Frame) : 0.262
    Stream size : 1.34 GiB (92%)
    Writing library : XviD 1.2.1 (UTC 2008-12-04)
    Audio
    ID : 1
    Format : AC-3
    Format/Info : Audio Coding 3
    Mode extension : CM (complete main)
    Format settings, Endianness : Big
    Codec ID : 2000
    Duration : 1h 24mn
    Bit rate mode : Constant
    Bit rate : 192 Kbps
    Channel(s) : 2 channels
    Channel positions : Front: L R
    Sampling rate : 48.0 KHz
    Bit depth : 16 bits
    Compression mode : Lossy
    Stream size : 116 MiB (8%)
    Alignment : Aligned on interleaves
    Interleave, duration : 40 ms (1.00 video frame)
    Interleave, preload duratio : 512 ms

    Скриншоты

    Скачать .torrent

    Скачать торрент-файл бесплатно и на максимальной скорости!

    Как скачивать? · Что такое торрент? · Рейтинг и ограничения

    !ВНИМАНИЕ!
    Сайт не распространяет и не хранит электронные версии произведений, а занимается лишь лишь предоставлением доступа к создаваемому пользователями каталогу ссылок на торрент-файлы, которые содержат только списки хеш-сумм, убедительная просьба с жалобами обращаться напрямую к пользователю. Файлы для обмена на трекере предоставлены пользователями сайта, и администрация не несёт ответственности за их содержание. Просьба не заливать файлы, защищенные авторскими правами, а также файлы нелегального содержания!


    _________________
    [Профиль] [ЛС]
    Показать сообщения:    
    Ответить на тему

    Текущее время: Сегодня, в 20:40

    Часовой пояс: GMT + 2



    Вы не можете начинать темы
    Вы не можете отвечать на сообщения
    Вы не можете редактировать свои сообщения
    Вы не можете удалять свои сообщения
    Вы не можете голосовать в опросах
    Вы не можете прикреплять файлы к сообщениям
    Вы не можете скачивать файлы