BitTorrentTracker PerecTracker.org
BitTorrentTracker PerecTracker.org
    
Регистрация  ·  Вход
 
 · 
Забыли пароль?

  • Инспектор уголовного розыска (Суламифь Цыбульник) [1971, детектив, DVB]

    Ответить на тему
     
    Автор Сообщение

    Light

    Создавать темы 13-Мар-2015 22:56

           

    [Цитировать]

    Инспектор уголовного розыска
    Жанр: детектив
    Год выпуска: 1971
    Продолжительность: 01:26:52
    Режиссёр: Суламифь Цыбульник
    В ролях: Юрий Соломин, Евгения Ветлова, Николай Лебедев (II), Борис Зайденберг, Александр Голобородько, Виктор Мирошниченко, Станислав Бородокин, Александр Мовчан, Владимир Заманский, Герман Качин, Лесь Сердюк, Михаил Водяной, Владимир Анисько, Николай Дупак, Юрий Сарычев, Владимир Марченко (II), Лев Перфилов, Галина Кавура
    Описание: Дело, которое ведет майор Головко - ограбление сберкассы. Он, конечно, найдет преступников, потому что в арсенале Головко - самые современные средства криминалистики и такие же ловкие, как он сам, коллеги. А по ходу расследования Головко поможет выбрать верный путь оступившемуся человеку - доброму работяге-шоферу Севе Гриневичу.
    Доп. информация: Запись потока *.ts со спутника ABS-2, 75° в.д., ремукс в *.mkv программой VideoReDo.
    Качество видео: DVB
    Формат видео: MPEG-PS
    Видео: MPEG Video, 720(768)x576 (4:3), 25,000 кадров/сек, 3 185 Кбит/сек
    Аудио: MPEG Audio, 48,0 КГц, 192 Кбит/сек, 2 канала

    MediaInfo

    Общее
    Полное имя : G:\MPG\Инспектор уголовного розыска (Moskva Doverie 56).mpg
    Формат : MPEG-PS
    Размер файла : 2,09 Гбайт
    Продолжительность : 1 ч. 26 м.
    Режим общего битрейта : Переменный
    Общий поток : 3446 Кбит/сек
    Видео
    Идентификатор : 224 (0xE0)
    Формат : MPEG Video
    Версия формата : Version 2
    Профиль формата : Main@Main
    Параметр BVOP формата : Да
    Параметр матрицы формата : Выборочная
    Параметр GOP формата : M=3, N=12
    Format_Settings_PictureStructure : Frame
    Продолжительность : 1 ч. 26 м.
    Вид битрейта : Переменный
    Битрейт : 3186 Кбит/сек
    Максимальный битрейт : 15,0 Мбит/сек
    Ширина : 720 пикселей
    Высота : 576 пикселей
    Соотношение сторон : 4:3
    Частота кадров : 25,000 кадров/сек
    Стандарт вещания : PAL
    Цветовое пространство : YUV
    Субдискретизация насыщенности : 4:2:0
    Битовая глубина : 8 бит
    Тип развёртки : Чересстрочная
    Порядок развёртки : Верхнее поле первое
    Метод сжатия : С потерями
    Бит/(Пиксели*Кадры) : 0.307
    Временной код первого кадра : 00:00:00:00
    Оригинал временного кода : Group of pictures header
    Размер потока : 1,93 Гбайт (92%)
    Аудио
    Идентификатор : 192 (0xC0)
    Формат : MPEG Audio
    Версия формата : Version 1
    Профиль формата : Layer 2
    Продолжительность : 1 ч. 26 м.
    Вид битрейта : Постоянный
    Битрейт : 192 Кбит/сек
    Каналы : 2 канала
    Частота : 48,0 КГц
    Метод сжатия : С потерями
    Задержка видео : 3 мс.
    Размер потока : 119 Мбайт (6%)

    Скриншоты

    Скачать .torrent

    Скачать торрент-файл бесплатно и на максимальной скорости!

    Как скачивать? · Что такое торрент? · Рейтинг и ограничения

    !ВНИМАНИЕ!
    Сайт не распространяет и не хранит электронные версии произведений, а занимается лишь лишь предоставлением доступа к создаваемому пользователями каталогу ссылок на торрент-файлы, которые содержат только списки хеш-сумм, убедительная просьба с жалобами обращаться напрямую к пользователю. Файлы для обмена на трекере предоставлены пользователями сайта, и администрация не несёт ответственности за их содержание. Просьба не заливать файлы, защищенные авторскими правами, а также файлы нелегального содержания!


    _________________
    [Профиль] [ЛС]
    Показать сообщения:    
    Ответить на тему

    Текущее время: Сегодня, в 22:29

    Часовой пояс: GMT + 2



    Вы не можете начинать темы
    Вы не можете отвечать на сообщения
    Вы не можете редактировать свои сообщения
    Вы не можете удалять свои сообщения
    Вы не можете голосовать в опросах
    Вы не можете прикреплять файлы к сообщениям
    Вы не можете скачивать файлы