Register  ·  Log in
Forgot password?

  • Папина жена (Эра Савельева) [1968, Мелодрама, SATRip]

    Reply to topic
    Author Message


    Post 13-Mar-2015 23:56



    Папина жена
    Жанр: Мелодрама
    Год выпуска: 1968
    Продолжительность: 00:15:08

    Режиссёр: Эра Савельева
    В ролях: Андрюша Макаренко, Лариса Барабанова, Мария Кремнева, Алеша Лямин, Коля Томский, Алексей Локтев, Нина Гребешкова
    Описание: В жизни маленького мальчика Андрюши, живущего с тетей, появляется новая мама.
    Какими будут их взаимоотношения и найдут ли общий язык папина жена и его маленький сын.

    Доп. информация:

    Качество видео: SATRip
    Формат видео: AVI
    Видео: 720x544 (1.32:1), 25 fps, XviD MPEG-4 ~1904 kbps avg, 0.19 bit/pixel
    Аудио: 44.100 kHz, MPEG Layer 3, 2 ch, ~128.00 kbps avg


    Complete name : Papina.zhena.1968.SATRip.fenixclub.avi
    Format : AVI
    Format/Info : Audio Video Interleave
    File size : 221 MiB
    Duration : 15mn 8s
    Overall bit rate : 2 043 Kbps
    Writing application : VirtualDubModRus (build 2542/release)
    Writing library : VirtualDub build 32842/release
    ID : 0
    Format : MPEG-4 Visual
    Format profile : Advanced Simple@L5
    Format settings, BVOP : Yes
    Format settings, QPel : No
    Format settings, GMC : No warppoints
    Format settings, Matrix : Default (H.263)
    Codec ID : XVID
    Codec ID/Hint : XviD
    Duration : 15mn 8s
    Bit rate : 1 905 Kbps
    Width : 720 pixels
    Height : 544 pixels
    Display aspect ratio : 4:3
    Frame rate : 25.000 fps
    Color space : YUV
    Chroma subsampling : 4:2:0
    Bit depth : 8 bits
    Scan type : Progressive
    Compression mode : Lossy
    Bits/(Pixel*Frame) : 0.195
    Stream size : 206 MiB (93%)
    Writing library : XviD 73
    ID : 1
    Format : MPEG Audio
    Format version : Version 1
    Format profile : Layer 3
    Mode : Joint stereo
    Mode extension : MS Stereo
    Codec ID : 55
    Codec ID/Hint : MP3
    Duration : 15mn 8s
    Bit rate mode : Constant
    Bit rate : 128 Kbps
    Channel(s) : 2 channels
    Sampling rate : 44.1 KHz
    Compression mode : Lossy
    Stream size : 13.9 MiB (6%)
    Alignment : Split accross interleaves
    Interleave, duration : 40 ms (1.00 video frame)
    Interleave, preload duration : 500 ms


    Download .torrent

    Download free and at maximum speed!

    How to Download? · What is a torrent? · Ratings and Limitations

    The site does not extend and does not store electronic(digital) versions of products, and only gives access to a reference catalogue created by users on torrent-files which contain only lists of the hash-sums, the earnest entreaty, with complaints(abuse) to access directly to the user. Files for an exchange on tracker are given by users of a site, and the administration does not bear the responsibility for their maintenance. The request to not fill in the files protected by copyrights, and also files of the illegal maintenance!

    [Profile] [PM]
    Display posts from previous:    
    Reply to topic

    The time now is: Today 17:49

    All times are GMT + 3 Hours

    You cannot post new topics in this forum
    You cannot reply to topics in this forum
    You cannot edit your posts in this forum
    You cannot delete your posts in this forum
    You cannot vote in polls in this forum
    You cannot attach files in this forum
    You cannot download files in this forum