BitTorrentTracker PerecTracker.org
BitTorrentTracker PerecTracker.org
    
Регистрация  ·  Вход
 
 · 
Забыли пароль?

  • Лев Гурыч Синичкин (Александр Белинский) [1974, Водевиль, DVB]

    Ответить на тему
     
    Автор Сообщение

    Light

    Создавать темы 13-Мар-2015 22:56

           

    [Цитировать]

    Лев Гурыч Синичкин
    Жанр: Водевиль
    Год выпуска: 1974
    Продолжительность: 01:12:13
    Режиссёр: Александр Белинский
    В ролях:
    Николай Трофимов — Лев Гурыч Синичкин
    Галина Федотова — Лизонька (озвучивание — Таисия Калинченко)
    Нонна Мордюкова — Раиса Минична Сурмилова, прима театра
    Георгий Георгиу — Терсис Иванович Чахоткин, актёр
    Олег Табаков — Борзиков, драматург
    Михаил Козаков — граф Зефиров, знатное лицо
    Илья Рутберг — Налимов, распорядитель в театре
    Пётр Щербаков — Пустославцев, содержатель театра
    Леонид Куравлёв — князь Ветренский
    Андрей Миронов — дирижёр
    Описание: Старый актёр Лев Гурыч Синичкин (Николай Николаевич Трофимов) мечтает, чтобы его дочери Лизоньке (Галина Федотова) досталась главная роль — ведь она так талантлива. Но ему противостоят обстоятельства: могущественная примадонна труппы Сурмилова (Нонна Мордюкова) с ужасным характером и большими связями…
    Доп. информация: Предыдущая экранизация водевиля Дмитрия Ленского была снята в 1956 году режиссёром Константином Юдиным — «На подмостках сцены». http://perectracker.org/viewtopic.php?t=4299119
    Семпл: https://www.sendspace.com/file/xpfckv
    Качество видео: DVB
    Формат видео: TS
    Видео: MPEG2 720х576 (4:3), 3012 Kbps, 25.000 fps
    Аудио: MPEG Audio 48.0 KHz, 192 Kbps, 2 channels

    MediaInfo

    Общее
    Идентификатор : 16 (0x10)
    Полное имя : Лев Гурыч Синичкин..ts
    Формат : MPEG-TS
    Размер файла : 1,70 Гбайт
    Продолжительность : 1 ч. 12 м.
    Режим общего битрейта : Переменный
    Общий поток : 3373 Кбит/сек
    Видео
    Идентификатор : 501 (0x1F5)
    Идентификатор меню : 3 (0x3)
    Формат : MPEG Video
    Версия формата : Version 2
    Профиль формата : Main@Main
    Параметр BVOP формата : Да
    Параметр матрицы формата : Выборочная
    Параметр GOP формата : M=3, N=12
    Идентификатор кодека : 2
    Продолжительность : 1 ч. 12 м.
    Вид битрейта : Переменный
    Битрейт : 3012 Кбит/сек
    Максимальный битрейт : 10000 Кбит/сек
    Ширина : 720 пикселей
    Высота : 576 пикселей
    Соотношение сторон : 4:3
    Частота кадров : 25,000 кадров/сек
    Стандарт вещания : PAL
    Цветовое пространство : YUV
    Субдискретизация насыщенности : 4:2:0
    Битовая глубина : 8 бит
    Тип развёртки : Чересстрочная
    Порядок развёртки : Верхнее поле первое
    Метод сжатия : С потерями
    Бит/(Пиксели*Кадры) : 0.291
    Временной код первого кадра : 00:00:00:00
    Оригинал временного кода : Group of pictures header
    Размер потока : 1,52 Гбайт (89%)
    Библиотека кодирования : (dvd5: Nov 27 2014)
    Аудио
    Идентификатор : 506 (0x1FA)
    Идентификатор меню : 3 (0x3)
    Формат : MPEG Audio
    Версия формата : Version 1
    Профиль формата : Layer 2
    Идентификатор кодека : 3
    Продолжительность : 1 ч. 12 м.
    Вид битрейта : Постоянный
    Битрейт : 192 Кбит/сек
    Каналы : 2 канала
    Частота : 48,0 КГц
    Метод сжатия : С потерями
    Задержка видео : -40 мс.
    Размер потока : 99,2 Мбайт (6%)

    Скриншоты

    Скачать .torrent

    Скачать торрент-файл бесплатно и на максимальной скорости!

    Как скачивать? · Что такое торрент? · Рейтинг и ограничения

    !ВНИМАНИЕ!
    Сайт не распространяет и не хранит электронные версии произведений, а занимается лишь лишь предоставлением доступа к создаваемому пользователями каталогу ссылок на торрент-файлы, которые содержат только списки хеш-сумм, убедительная просьба с жалобами обращаться напрямую к пользователю. Файлы для обмена на трекере предоставлены пользователями сайта, и администрация не несёт ответственности за их содержание. Просьба не заливать файлы, защищенные авторскими правами, а также файлы нелегального содержания!


    _________________
    [Профиль] [ЛС]
    Показать сообщения:    
    Ответить на тему

    Текущее время: Сегодня, в 02:42

    Часовой пояс: GMT + 2



    Вы не можете начинать темы
    Вы не можете отвечать на сообщения
    Вы не можете редактировать свои сообщения
    Вы не можете удалять свои сообщения
    Вы не можете голосовать в опросах
    Вы не можете прикреплять файлы к сообщениям
    Вы не можете скачивать файлы