BitTorrentTracker PerecTracker.org
BitTorrentTracker PerecTracker.org
    
Регистрация  ·  Вход
 
 · 
Забыли пароль?

  • Актриса (Леонид Трауберг) [1943, Военно-музыкальный фильм , комедия, DVB]

    Ответить на тему
     
    Автор Сообщение

    Light

    Создавать темы 13-Мар-2015 22:56

           

    [Цитировать]

    Актриса
    Жанр: Военно-музыкальный фильм , комедия
    Год выпуска: 1943
    Продолжительность: 01:11:57
    Режиссёр: Леонид Трауберг
    В ролях:
    В главных ролях
    Галина Сергеева — Зоя Владимировна Стрельникова
    Борис Бабочкин — Пётр Николаевич Марков
    Зинаида Морская — Агафья Лукинична
    В ролях
    Владимир Грибков — Анатолий Сергеевич Оболенский
    Михаил Жаров — артист Жаров
    Юрий Коршун
    Константин Сорокин — Зайцев
    Николай Темяков — директор театра
    Владимир Шишкин — Шурик
    В титрах не указаны:
    Юрий Боголюбов — парень с патефоном
    Георгий Гумилевский — раненый
    Александра Данилова — медсестра
    Александра Денисова — Вера Борисовна
    Михаил Кузнецов — боец на прифронтовом концерте
    Георгий Светлани — раненый, балалаечник
    Манефа Соболевская — медсестра
    Зоя Земнухова — девчонка-нищенка
    Владимир Уральский — боец
    Инна Фёдорова — медсестра
    Григорий Шпигель — Борис Яковлевич, аккомпаниатор Стрельниковой
    Описание: Зою Владимировну Стрельникову, известную актрису оперетты, вместе с Театром оперетты эвакуируют в тыл. Там Стрельниковой находят комнату и она поселяется у строгой Агафьи Лукиничны, у которой сын (майор, командир батальона) на фронте и она считает, что веселья во время войны не должно быть.
    После упрёков хозяйки дома, Стрельникова увольняется из театра и устраивается няней в военный госпиталь, где знакомится с раненым майором Петром Николаевичем Марковым, у которого повреждены глаза.
    Как-то Марков признался, что он страстный любитель оперетты и что даже влюбился в одну солистку. Стрельникова тоже влюбляется в Маркова. Однажды Марков попросил поставить пластинку, которую хранил в тумбочке, где была запись Стрельниковой. Она случайно разбивает пластинку и, чтобы не расстраивать Маркова, исполняет песню самостоятельно. Тогда-то все и догадываются, что под няней Зоей скрывается известная актриса.
    Доп. информация: В фильме использованы следующие музыкальные отрывки: ария Марицы из оперетты Имре Кальмана «Сильва», песня Нинон «Карамболина, Карамболетта!» в записи Веры Красовицкой из оперетты Имре Кальмана «Фиалка Монмартра», куплеты Периколы из оперетты Жака Оффенбаха «Перикола»
    Фильм восстановлен на Ленинградской ордена Ленина киностудии «Ленфильм» в 1972 году
    Режиссёр восстановления — Давид Кочарян
    Звукооператор — Юрий Леонтьев
    Семпл: https://www.sendspace.com/file/xnjsrq
    Качество видео: DVB
    Формат видео: TS
    Видео: MPEG2 720:576 4:3 3400 Кбит/сек 25,000 кадров/сек
    Аудио: MPEG Audio 192 Кбит/сек 48,0 КГц 2 канала

    MediaInfo

    Общее
    Идентификатор : 1 (0x1)
    Полное имя : Актриса.ts
    Формат : MPEG-TS
    Размер файла : 1,86 Гбайт
    Продолжительность : 1 ч. 11 м.
    Режим общего битрейта : Переменный
    Общий поток : 3706 Кбит/сек
    Видео
    Идентификатор : 221 (0xDD)
    Идентификатор меню : 1 (0x1)
    Формат : MPEG Video
    Версия формата : Version 2
    Профиль формата : Main@Main
    Параметр BVOP формата : Да
    Параметр матрицы формата : Выборочная
    Параметр GOP формата : M=3, N=24
    Идентификатор кодека : 2
    Продолжительность : 1 ч. 11 м.
    Битрейт : 3400 Кбит/сек
    Ширина : 720 пикселей
    Высота : 576 пикселей
    Соотношение сторон : 4:3
    Частота кадров : 25,000 кадров/сек
    Стандарт вещания : PAL
    Цветовое пространство : YUV
    Субдискретизация насыщенности : 4:2:0
    Битовая глубина : 8 бит
    Тип развёртки : Чересстрочная
    Порядок развёртки : Верхнее поле первое
    Метод сжатия : С потерями
    Бит/(Пиксели*Кадры) : 0.328
    Временной код первого кадра : 00:00:00:00
    Оригинал временного кода : Group of pictures header
    Размер потока : 1,71 Гбайт (92%)
    Аудио
    Идентификатор : 222 (0xDE)
    Идентификатор меню : 1 (0x1)
    Формат : MPEG Audio
    Версия формата : Version 1
    Профиль формата : Layer 2
    Идентификатор кодека : 3
    Продолжительность : 1 ч. 11 м.
    Вид битрейта : Постоянный
    Битрейт : 128 Кбит/сек
    Каналы : 2 канала
    Частота : 48,0 КГц
    Метод сжатия : С потерями
    Задержка видео : 6 мс.
    Размер потока : 65,9 Мбайт (3%)

    Скриншоты

    Скачать .torrent

    Скачать торрент-файл бесплатно и на максимальной скорости!

    Как скачивать? · Что такое торрент? · Рейтинг и ограничения

    !ВНИМАНИЕ!
    Сайт не распространяет и не хранит электронные версии произведений, а занимается лишь лишь предоставлением доступа к создаваемому пользователями каталогу ссылок на торрент-файлы, которые содержат только списки хеш-сумм, убедительная просьба с жалобами обращаться напрямую к пользователю. Файлы для обмена на трекере предоставлены пользователями сайта, и администрация не несёт ответственности за их содержание. Просьба не заливать файлы, защищенные авторскими правами, а также файлы нелегального содержания!


    _________________
    [Профиль] [ЛС]
    Показать сообщения:    
    Ответить на тему

    Текущее время: Сегодня, в 06:58

    Часовой пояс: GMT + 2



    Вы не можете начинать темы
    Вы не можете отвечать на сообщения
    Вы не можете редактировать свои сообщения
    Вы не можете удалять свои сообщения
    Вы не можете голосовать в опросах
    Вы не можете прикреплять файлы к сообщениям
    Вы не можете скачивать файлы