BitTorrentTracker PerecTracker.org
BitTorrentTracker PerecTracker.org
    
Регистрация  ·  Вход
 
 · 
Забыли пароль?

  • Милдред Пирс / Mildred Pierce (Майкл Кёртиц / Michael Curtiz) [1945, США, фильм-нуар, драма, мелодрама, детектив, WEB-DL, HD (720p)] MVOx2, Original + sub (ENG)

    Ответить на тему
     
    Автор Сообщение

    rechyn

    Создавать темы 13-Мар-2015 22:56

           

    [Цитировать]

    Милдред Пирс / Mildred Pierce
    "In her heart of hearts she knew it would happen this way !" 8.0 / 10 | 7.82 / 10
    -Год выпуска: 1945
    Страна: США
    Жанр: фильм-нуар, драма, мелодрама, детектив
    Продолжительность: 111 мин.
    Перевод: Профессиональный многоголосый закадровый перевод
    Оригинальная аудиодорожка: Есть
    Cубтитры: Английские полные
    Режиссёр: Майкл Кёртиц
    Сценарий: Рэналд МакДагалл, Уильям Фолкнер, Маргарет Груэн
    Продюсер: Джерри Уолд, Джек Л. Уорнер
    Оператор: Эрнест Хэллер
    Композитор: Макс Штайнер
    Художник: Антон Грот, Бертрам Таттл, Джордж Джеймс Хопкинс
    Монтаж: Дэвид Вейсбарт
    В ролях: Джоан Кроуфорд, Джек Карсон, Захари Скотт, Ив Арден, Энн Блит, Брюс Беннетт, Ли Патрик, Морони Олсен, Веда Энн Борг, Джо Энн Марлоу
    Бюджет: $1 453 000
    Мировая премьера: 24 сентября 1945
    Описание: Супружество Милдред с Бертом было неудачным. В то время, как она посвящает всю себя дочерям, в основном старшей, Веде, Берт веселится в приятной компании. Оставив Берта, Милдред устраивается работать официанткой. Будучи честолюбивой, она очень много работает и идет вверх по карьерной лестнице. Она знакомится с плейбоем Монти Берагоном и совершает роковую ошибку: выходит за него замуж. А он пускает ее сбережения на ветер...- 5 номинаций и премия «Оскар» за Лучшую женскую роль (Джоан Кроуфорд) 1946 г.-Качество исходника: WEB-DL
    Качество: WEB-DL
    Тип: HD (720p)
    Контейнер: M4V
    Видео: 982x720 at 23.976 fps, MPEG-4 AVC, ~4000 kbps avg
    Аудио №1: Русский / Многоголосый закадровый / ААС / 2.0 / 48.0 KHz / 160 kbps
    Аудио №2: Русский / Многоголосый закадровый, СТС/ ААС / 2.0 / 48.0 KHz / 160 kbps
    Аудио №3: Английский / Оригинал / ААС / 2.0 / 48.0 KHz / 160 kbps
    Субтитры №1: Английские полные
    -

    iTunes Meta Tags for country US

    Name: Mildred Pierce
    Artist: Michael Curtiz
    Genre: Drama
    Release Date: 1945-09-24T00:00:00Z
    Description: Супружество Милдред с Бертом было неудачным. В то время, как она посвящает всю себя дочерям, в основном старшей, Веде, Берт веселится в приятной компании. Оставив Берта, Милдред устраивается работать официанткой. Будучи честолюбивой, она очень много работает и идет вверх по карьерной лестнице.
    Long Description: Супружество Милдред с Бертом было неудачным. В то время, как она посвящает всю себя дочерям, в основном старшей, Веде, Берт веселится в приятной компании. Оставив Берта, Милдред устраивается работать официанткой. Будучи честолюбивой, она очень много работает и идет вверх по карьерной лестнице. Она знакомится с плейбоем Монти Берагоном и совершает роковую ошибку: выходит за него замуж. А он пускает ее сбережения на ветер...
    Rating: NR
    Rating Annotation: n/a
    Studio: Warner Bros.
    Cast: Джоан Кроуфорд, Джек Карсон, Захари Скотт, Ив Арден, Энн Блит, Брюс Беннетт, Ли Патрик, Морони Олсен, Веда Энн Борг, Джо Энн Марлоу
    Director: Майкл Кёртиц
    Producers: Джерри Уолд, Джек Л. Уорнер
    Screenwriters: Рэналд МакДагалл, Уильям Фолкнер, Маргарет Груэн
    Copyright: © 1945 Mildred Pierce Turner Entertainment Co. Package Design & Supplementary Material Compilation Turner Entertainment Co. and Warner Bros. Entertainment Inc.
    contentID: 426170840
    XID: Apple:vendor_id:1945-8292
    Sort Name: Mildred Pierce

    MediaInfo

    Формат : MPEG-4
    Идентификатор кодека : M4V
    Размер файла : 3,48 Гбайт
    Продолжительность : 1 ч. 50 м.
    Режим общего битрейта : Переменный
    Общий поток : 4490 Кбит/сек
    Название фильма : Mildred Pierce
    Исполнитель : Michael Curtiz
    Жанр : Drama
    Дата записи : UTC 1945-09-24 08:00:00
    Дата кодирования : UTC 2013-12-29 09:39:09
    Дата пометки : UTC 2013-12-29 10:02:52
    Правообладатель : © 1945 Mildred Pierce Turner Entertainment Co. Package Design & Supplementary Material Compilation Turner Entertainment Co. and Warner Bros. Entertainment Inc.
    Обложка : Yes
    sonm : Mildred Pierce
    desc : Супружество Милдред с Бертом было неудачным. В то время, как она посвящает всю себя дочерям, в основном старшей, Веде, Берт веселится в приятной компании. Оставив Берта, Милдред устраивается работать официанткой. Будучи честолюбивой, она очень много работает и идет вверх по карьерной лестнице.
    ldes : Супружество Милдред с Бертом было неудачным. В то время, как она посвящает всю себя дочерям, в основном старшей, Веде, Берт веселится в приятной компании. Оставив Берта, Милдред устраивается работать официанткой. Будучи честолюбивой, она очень много работает и идет вверх по карьерной лестнице. Она знакомится с плейбоем Монти Берагоном и совершает роковую ошибку: выходит за него замуж. А он пускает ее сбережения на ветер...
    hdvd : 1
    stik : 9
    rtng : 0
    cnID : 426170840
    xid : Apple:vendor_id:1945-8292
    iTunEXTC : mpaa|NR|000|
    iTunMOVI : <?xml version="1.0" encoding="UTF-8"?> / <!DOCTYPE plist PUBLIC "-//Apple//DTD PLIST 1.0//EN" "http://anonym.to/?http://www.apple.com/DTDs/PropertyList-1.0.dtd"> / <plist version="1.0"> / <dict> /  <key>cast</key> /  <array> /   <dict> /    <key>name</key> /    <string>Джоан Кроуфорд</string> /   </dict> /   <dict> /    <key>name</key> /    <string>Джек Карсон</string> /   </dict> /   <dict> /    <key>name</key> /    <string>Захари Скотт</string> /   </dict> /   <dict> /    <key>name</key> /    <string>Ив Арден</string> /   </dict> /   <dict> /    <key>name</key> /    <string>Энн Блит</string> /   </dict> /   <dict> /    <key>name</key> /    <string>Брюс Беннетт</string> /   </dict> /   <dict> /    <key>name</key> /    <string>Ли Патрик</string> /   </dict> /   <dict> /    <key>name</key> /    <string>Морони Олсен</string> /   </dict> /   <dict> /    <key>name</key> /    <string>Веда Энн Борг</string> /   </dict> /   <dict> /    <key>name</key> /    <string>Джо Энн Марлоу</string> /   </dict> /  </array> /  <key>directors</key> /  <array> /   <dict> /    <key>name</key> /    <string>Майкл Кёртиц</string> /   </dict> /  </array> /  <key>producers</key> /  <array> /   <dict> /    <key>name</key> /    <string>Джерри Уолд</string> /   </dict> /   <dict> /    <key>name</key> /    <string>Джек Л. Уорнер</string> /   </dict> /  </array> /  <key>screenwriters</key> /  <array> /   <dict> /    <key>name</key> /    <string>Рэналд МакДагалл</string> /   </dict> /   <dict> /    <key>name</key> /    <string>Уильям Фолкнер</string> /   </dict> /   <dict> /    <key>name</key> /    <string>Маргарет Груэн</string> /   </dict> /  </array> /  <key>studio</key> /  <string>Warner Bros.</string> / </dict> / </plist>
    Видео #1
    Идентификатор : 1
    Формат : AVC
    Формат/Информация : Advanced Video Codec
    Профиль формата : High@L3.1
    Параметр CABAC формата : Нет
    Параметр ReFrames формата : 2 кадра
    Параметр GOP формата : M=2, N=89
    Идентификатор кодека : avc1
    Идентификатор кодека/Информация : Advanced Video Coding
    Продолжительность : 1 ч. 50 м.
    Вид битрейта : Переменный
    Битрейт : 4059 Кбит/сек
    Ширина : 982 пикселя
    Высота : 720 пикселей
    Соотношение сторон : 4:3
    Режим частоты кадров : Переменный
    Частота кадров : 23,976 кадра/сек
    Минимальная частота кадров : 23,810 кадра/сек
    Максимальная частота кадров : 24,390 кадра/сек
    Цветовое пространство : YUV
    Субдискретизация насыщенности : 4:2:0
    Битовая глубина : 8 бит
    Тип развёртки : Прогрессивная
    Бит/(Пиксели*Кадры) : 0.239
    Размер потока : 3,14 Гбайт (90%)
    Язык : English
    Дата кодирования : UTC 2013-12-29 09:39:09
    Дата пометки : UTC 2013-12-29 09:45:06
    Основные цвета : BT.709
    Характеристики трансфера : BT.709
    Коэффициенты матрицы : BT.709
    Видео #2
    Идентификатор : 7
    Формат : JPEG
    Идентификатор кодека : jpeg
    Продолжительность : 1 ч. 50 м.
    Вид битрейта : Переменный
    Битрейт : 968 бит/сек
    Ширина : 640 пикселей
    Высота : 469 пикселей
    Соотношение сторон : 4:3
    Режим частоты кадров : Переменный
    Частота кадров : 0,002 кадр/сек
    Минимальная частота кадров : 0,002 кадр/сек
    Максимальная частота кадров : 0,023 кадр/сек
    Цветовое пространство : YUV
    Субдискретизация насыщенности : 4:2:0
    Битовая глубина : 8 бит
    Метод сжатия : С потерями
    Бит/(Пиксели*Кадры) : 1.612
    Размер потока : 709 Кбайт (0%)
    Язык : English
    Дата кодирования : UTC 2013-12-29 09:49:45
    Дата пометки : UTC 2013-12-29 09:49:46
    Аудио #1
    Идентификатор : 2
    Формат : AAC
    Формат/Информация : Advanced Audio Codec
    Профиль формата : LC
    Идентификатор кодека : 40
    Продолжительность : 1 ч. 50 м.
    Вид битрейта : Переменный
    Битрейт : 132 Кбит/сек
    Максимальный битрейт : 148 Кбит/сек
    Каналы : 2 канала
    Расположение каналов : Front: L R
    Частота : 48,0 КГц
    Метод сжатия : С потерями
    Задержка видео : 42 мс.
    Размер потока : 104 Мбайт (3%)
    Язык : Russian
    Дата кодирования : UTC 2013-12-29 09:39:09
    Дата пометки : UTC 2013-12-29 09:39:23
    Аудио #2
    Идентификатор : 3
    Формат : AAC
    Формат/Информация : Advanced Audio Codec
    Профиль формата : LC
    Идентификатор кодека : 40
    Продолжительность : 1 ч. 50 м.
    Вид битрейта : Переменный
    Битрейт : 164 Кбит/сек
    Максимальный битрейт : 220 Кбит/сек
    Каналы : 2 канала
    Расположение каналов : Front: L R
    Частота : 48,0 КГц
    Метод сжатия : С потерями
    Задержка видео : 42 мс.
    Размер потока : 130 Мбайт (4%)
    Язык : Russian
    Дата кодирования : UTC 2013-12-29 09:39:09
    Дата пометки : UTC 2013-12-29 09:45:21
    Аудио #3
    Идентификатор : 4
    Формат : AAC
    Формат/Информация : Advanced Audio Codec
    Профиль формата : LC
    Идентификатор кодека : 40
    Продолжительность : 1 ч. 50 м.
    Вид битрейта : Переменный
    Битрейт : 113 Кбит/сек
    Максимальный битрейт : 132 Кбит/сек
    Каналы : 2 канала
    Расположение каналов : Front: L R
    Частота : 48,0 КГц
    Метод сжатия : С потерями
    Задержка видео : 42 мс.
    Размер потока : 89,3 Мбайт (3%)
    Язык : English
    Дата кодирования : UTC 2013-12-29 09:39:09
    Дата пометки : UTC 2013-12-29 09:45:06
    Текст
    Идентификатор : 5
    Формат : Timed Text
    Режим смешивания : sbtl
    Идентификатор кодека : tx3g
    Продолжительность : 1 ч. 50 м.
    Вид битрейта : Переменный
    Битрейт : 92 бит/сек
    Задержка видео : 42 мс.
    Размер потока : 74,6 Кбайт (0%)
    Язык : English
    Дата кодирования : UTC 2013-12-29 09:39:09
    Дата пометки : UTC 2013-12-29 09:45:06
    Меню #1
    00:00:00.000 : Chapter 1
    00:10:00.000 : Chapter 2
    00:20:01.000 : Chapter 3
    00:30:01.000 : Chapter 4
    00:40:02.000 : Chapter 5
    00:50:03.000 : Chapter 6
    01:00:03.000 : Chapter 7
    01:10:04.000 : Chapter 8
    01:20:04.000 : Chapter 9
    01:30:05.000 : Chapter 10
    01:40:06.000 : Chapter 11
    01:50:06.000 : Chapter 12

    Скриншоты

    , ,
    -

    Релиз подготовлен для просмотра на Apple TV, iPad, iPhone, iPod Touch.
    Для просмотра данного релиза на компьютере с ОС Windows рекомендуется использовать VLC media player
    Скачать .torrent

    Скачать торрент-файл бесплатно и на максимальной скорости!

    Как скачивать? · Что такое торрент? · Рейтинг и ограничения

    !ВНИМАНИЕ!
    Сайт не распространяет и не хранит электронные версии произведений, а занимается лишь лишь предоставлением доступа к создаваемому пользователями каталогу ссылок на торрент-файлы, которые содержат только списки хеш-сумм, убедительная просьба с жалобами обращаться напрямую к пользователю. Файлы для обмена на трекере предоставлены пользователями сайта, и администрация не несёт ответственности за их содержание. Просьба не заливать файлы, защищенные авторскими правами, а также файлы нелегального содержания!


    _________________
    [Профиль] [ЛС]
    Показать сообщения:    
    Ответить на тему

    Текущее время: Сегодня, в 10:20

    Часовой пояс: GMT + 2



    Вы не можете начинать темы
    Вы не можете отвечать на сообщения
    Вы не можете редактировать свои сообщения
    Вы не можете удалять свои сообщения
    Вы не можете голосовать в опросах
    Вы не можете прикреплять файлы к сообщениям
    Вы не можете скачивать файлы