BitTorrentTracker PerecTracker.org
BitTorrentTracker PerecTracker.org
    
Регистрация  ·  Вход
 
 · 
Забыли пароль?

  • Тонкий человек / The Thin Man (В.С. Ван Дайк / W.S. Van Dyke) [1934, США, комедия, криминал, детектив, WEB-DL, HD (720p)] AVO, Original + sub (RUS, ENG)

    Ответить на тему
     
    Автор Сообщение

    rechyn

    Создавать темы 13-Мар-2015 22:56

           

    [Цитировать]

    Тонкий человек / The Thin Man
    "A laugh tops every thrilling moment!" 8.2 / 10 | 7.52 / 10
    -Год выпуска: 1934
    Страна: США
    Жанр: комедия, криминал, детектив
    Продолжительность: 91 мин.
    Перевод: Авторский одноголосый перевод
    Оригинальная аудиодорожка: Есть
    Cубтитры: Русские полные, английские полные
    Режиссёр: В.С. Ван Дайк
    Сценарий: Дэшил Хэммет, Альберт Хэкетт, Фрэнсис Гудрич
    Продюсер: Хант Стромберг
    Оператор: Джеймс Вонг Хоу
    Композитор: Уильям Экст
    Художник: Седрик Гиббонс
    Монтаж: Роберт Керн
    В ролях: Уильям Пауэлл, Мирна Лой, Морин О’Салливан, Нат Пендлтон, Минна Гомбелл, Портер Холл, Генри Вэдсворт, Уильям Генри, Харольд Хубер, Сизар Ромеро
    Бюджет: $226 408
    Мировая премьера: 25 мая 1934
    Релиз на DVD: 27 сентября 2012, New Dream media
    Описание: В канун Рождества убита секретарша богатого изобретателя Ваната. Все подозрения падают на него потому, что полиция не может найти профессора в городе.-Качество исходника: WEB-DL
    Качество: WEB-DL
    Тип: HD (720p)
    Контейнер: M4V
    Видео: 982x720 at 23.976 fps, MPEG-4 AVC, ~4000 kbps avg
    Аудио №1: Русский / Авторский одноголосый, Г.Либергал / ААС / 2.0 / 48.0 KHz / 160 kbps
    Аудио №2: Английский / Оригинал / ААС / 2.0 / 48.0 KHz / 160 kbps
    Субтитры №1: Русские полные
    Субтитры №2: Английские полные
    -

    iTunes Meta Tags for country US

    Name: The Thin Man
    Artist: W.S. Van Dyke
    Genre: Comedy
    Release Date: 1934-05-25T00:00:00Z
    Description: В канун Рождества убита секретарша богатого изобретателя Ваната. Все подозрения падают на него потому, что полиция не может найти профессора в городе.
    Long Description: В канун Рождества убита секретарша богатого изобретателя Ваната. Все подозрения падают на него потому, что полиция не может найти профессора в городе.
    Rating: NR
    Rating Annotation: n/a
    Studio: Warner Bros.
    Cast: Уильям Пауэлл, Мирна Лой, Морин О’Салливан, Нат Пендлтон, Минна Гомбелл, Портер Холл, Генри Вэдсворт, Уильям Генри, Харольд Хубер, Сизар Ромеро
    Director: В.С. Ван Дайк
    Producers: Хант Стромберг
    Screenwriters: Дэшил Хэммет, Альберт Хэкетт, Фрэнсис Гудрич
    Copyright: 1934 Copyright © Warner Bros. Entertainment Inc.
    contentID: 318961952
    XID: Apple:vendor_id:1934-553
    Sort Name: Thin Man

    MediaInfo

    Формат : MPEG-4
    Идентификатор кодека : M4V
    Размер файла : 2,88 Гбайт
    Продолжительность : 1 ч. 30 м.
    Режим общего битрейта : Переменный
    Общий поток : 4544 Кбит/сек
    Название фильма : The Thin Man
    Исполнитель : W.S. Van Dyke
    Жанр : Comedy
    Тип содержимого : Short Film
    Описание : В канун Рождества убита секретарша богатого изобретателя Ваната. Все подозрения падают на него потому, что полиция не может найти профессора в городе.
    Дата записи : UTC 1934-05-25 08:00:00
    Дата кодирования : UTC 2014-02-06 05:15:45
    Дата пометки : UTC 2014-02-06 05:28:48
    Правообладатель : 1934 Copyright © Warner Bros. Entertainment Inc.
    Обложка : Yes
    Рейтинг : None
    Title/Sort : Thin Man
    LongDescription : В канун Рождества убита секретарша богатого изобретателя Ваната. Все подозрения падают на него потому, что полиция не может найти профессора в городе.
    HDVideo : Yes
    AppleStoreCatalogID : 318961952
    Vendor : Apple:vendor_id:1934-553
    ContentRating : mpaa|NR|000|
    iTunMOVI : <?xml version="1.0" encoding="UTF-8"?> / <!DOCTYPE plist PUBLIC "-//Apple//DTD PLIST 1.0//EN" "http://anonym.to/?http://www.apple.com/DTDs/PropertyList-1.0.dtd"> / <plist version="1.0"> / <dict> /  <key>cast</key> /  <array> /   <dict> /    <key>name</key> /    <string>Уильям Пауэлл</string> /   </dict> /   <dict> /    <key>name</key> /    <string>Мирна Лой</string> /   </dict> /   <dict> /    <key>name</key> /    <string>Морин О’Салливан</string> /   </dict> /   <dict> /    <key>name</key> /    <string>Нат Пендлтон</string> /   </dict> /   <dict> /    <key>name</key> /    <string>Минна Гомбелл</string> /   </dict> /   <dict> /    <key>name</key> /    <string>Портер Холл</string> /   </dict> /   <dict> /    <key>name</key> /    <string>Генри Вэдсворт</string> /   </dict> /   <dict> /    <key>name</key> /    <string>Уильям Генри</string> /   </dict> /   <dict> /    <key>name</key> /    <string>Харольд Хубер</string> /   </dict> /   <dict> /    <key>name</key> /    <string>Сизар Ромеро</string> /   </dict> /  </array> /  <key>directors</key> /  <array> /   <dict> /    <key>name</key> /    <string>В.С. Ван Дайк</string> /   </dict> /  </array> /  <key>producers</key> /  <array> /   <dict> /    <key>name</key> /    <string>Хант Стромберг</string> /   </dict> /  </array> /  <key>screenwriters</key> /  <array> /   <dict> /    <key>name</key> /    <string>Дэшил Хэммет</string> /   </dict> /   <dict> /    <key>name</key> /    <string>Альберт Хэкетт</string> /   </dict> /   <dict> /    <key>name</key> /    <string>Фрэнсис Гудрич</string> /   </dict> /  </array> /  <key>studio</key> /  <string>Warner Bros.</string> / </dict> / </plist>
    Видео #1
    Идентификатор : 1
    Формат : AVC
    Формат/Информация : Advanced Video Codec
    Профиль формата : Main@L3.1
    Параметр CABAC формата : Нет
    Параметр ReFrames формата : 2 кадра
    Идентификатор кодека : avc1
    Идентификатор кодека/Информация : Advanced Video Coding
    Продолжительность : 1 ч. 30 м.
    Битрейт : 4238 Кбит/сек
    Ширина : 966 пикселей
    Высота : 720 пикселей
    Соотношение сторон : 4:3
    Режим частоты кадров : Переменный
    Частота кадров : 23,976 кадра/сек
    Минимальная частота кадров : 23,810 кадра/сек
    Максимальная частота кадров : 24,390 кадра/сек
    Цветовое пространство : YUV
    Субдискретизация насыщенности : 4:2:0
    Битовая глубина : 8 бит
    Тип развёртки : Прогрессивная
    Бит/(Пиксели*Кадры) : 0.254
    Размер потока : 2,69 Гбайт (93%)
    Язык : English
    Дата кодирования : UTC 2014-02-06 05:15:46
    Дата пометки : UTC 2014-02-06 05:21:02
    Основные цвета : BT.709
    Характеристики трансфера : BT.709
    Коэффициенты матрицы : BT.709
    Видео #2
    Идентификатор : 7
    Формат : JPEG
    Идентификатор кодека : jpeg
    Продолжительность : 1 ч. 30 м.
    Вид битрейта : Переменный
    Битрейт : 1952 бит/сек
    Ширина : 640 пикселей
    Высота : 477 пикселей
    Соотношение сторон : 4:3
    Режим частоты кадров : Переменный
    Частота кадров : 0,005 кадр/сек
    Минимальная частота кадров : 0,003 кадр/сек
    Максимальная частота кадров : 0,020 кадр/сек
    Цветовое пространство : YUV
    Субдискретизация насыщенности : 4:2:0
    Битовая глубина : 8 бит
    Метод сжатия : С потерями
    Бит/(Пиксели*Кадры) : 1.279
    Размер потока : 1,30 Мбайт (0%)
    Язык : English
    Дата кодирования : UTC 2014-02-06 05:21:13
    Дата пометки : UTC 2014-02-06 05:21:13
    Аудио #1
    Идентификатор : 2
    Формат : AAC
    Формат/Информация : Advanced Audio Codec
    Профиль формата : LC
    Идентификатор кодека : 40
    Продолжительность : 1 ч. 30 м.
    Вид битрейта : Переменный
    Битрейт : 127 Кбит/сек
    Максимальный битрейт : 144 Кбит/сек
    Каналы : 2 канала
    Расположение каналов : Front: L R
    Частота : 48,0 КГц
    Метод сжатия : С потерями
    Размер потока : 82,5 Мбайт (3%)
    Язык : Russian
    Дата кодирования : UTC 2014-02-06 05:15:46
    Дата пометки : UTC 2014-02-06 05:16:20
    Аудио #2
    Идентификатор : 3
    Формат : AAC
    Формат/Информация : Advanced Audio Codec
    Профиль формата : LC
    Идентификатор кодека : 40
    Продолжительность : 1 ч. 30 м.
    Вид битрейта : Переменный
    Битрейт : 164 Кбит/сек
    Максимальный битрейт : 244 Кбит/сек
    Каналы : 2 канала
    Channel(s)_Original : 1 канал
    Расположение каналов : Front: C
    Частота : 48,0 КГц
    Метод сжатия : С потерями
    Размер потока : 107 Мбайт (4%)
    Язык : English
    Дата кодирования : UTC 2014-02-06 05:15:46
    Дата пометки : UTC 2014-02-06 05:16:28
    Текст #1
    Идентификатор : 4
    Формат : Timed Text
    Режим смешивания : sbtl
    Идентификатор кодека : tx3g
    Продолжительность : 1 ч. 30 м.
    Вид битрейта : Переменный
    Битрейт : 162 бит/сек
    Размер потока : 108 Кбайт (0%)
    Язык : Russian
    Дата кодирования : UTC 2014-02-06 05:15:46
    Дата пометки : UTC 2014-02-06 05:21:02
    Текст #2
    Идентификатор : 5
    Формат : Timed Text
    Режим смешивания : sbtl
    Идентификатор кодека : tx3g
    Продолжительность : 1 ч. 30 м.
    Вид битрейта : Переменный
    Битрейт : 99 бит/сек
    Размер потока : 65,7 Кбайт (0%)
    Язык : English
    Дата кодирования : UTC 2014-02-06 05:15:46
    Дата пометки : UTC 2014-02-06 05:21:02
    Меню #1
    00:00:00.000 : Credits
    00:00:50.000 : Wedding Plans
    00:04:34.000 : Missing Bonds
    00:07:03.000 : Julia And Her Men
    00:10:36.000 : Nick Tends Bar
    00:13:10.000 : Nora Catches Up
    00:15:47.000 : Word Of Wynant
    00:20:51.000 : Woman Murdered
    00:24:47.000 : Piece Of Evidence
    00:27:50.000 : Join The Party
    00:31:22.000 : Family Gathering
    00:36:20.000 : Such Lovely People
    00:37:47.000 : Morelli Drops In
    00:41:45.000 : In Nora's Drawers
    00:45:07.000 : Shooting Gallery
    00:47:22.000 : Nick Has A Hunch
    00:50:08.000 : Suspect Update
    00:52:14.000 : Nunheim Talks Too Much
    00:56:43.000 : Evidence To Light
    01:00:53.000 : Wynant's Shop
    01:05:40.000 : The Drop On Tanner
    01:09:05.000 : The Net For Wynant
    01:12:47.000 : Suspects Party
    01:15:52.000 : The Guests Arrive
    01:20:01.000 : Serving Nuts And Fish
    01:23:13.000 : Nick Makes Sense
    01:26:33.000 : There's Your Murderer
    01:28:51.000 : Two Happy Couples

    Скриншоты

    , ,
    -

    Релиз подготовлен для просмотра на Apple TV, iPad, iPhone, iPod Touch.
    Для просмотра данного релиза на компьютере с ОС Windows рекомендуется использовать VLC media player
    -
    Скачать .torrent

    Скачать торрент-файл бесплатно и на максимальной скорости!

    Как скачивать? · Что такое торрент? · Рейтинг и ограничения

    !ВНИМАНИЕ!
    Сайт не распространяет и не хранит электронные версии произведений, а занимается лишь лишь предоставлением доступа к создаваемому пользователями каталогу ссылок на торрент-файлы, которые содержат только списки хеш-сумм, убедительная просьба с жалобами обращаться напрямую к пользователю. Файлы для обмена на трекере предоставлены пользователями сайта, и администрация не несёт ответственности за их содержание. Просьба не заливать файлы, защищенные авторскими правами, а также файлы нелегального содержания!


    _________________
    [Профиль] [ЛС]
    Показать сообщения:    
    Ответить на тему

    Текущее время: Сегодня, в 11:05

    Часовой пояс: GMT + 2



    Вы не можете начинать темы
    Вы не можете отвечать на сообщения
    Вы не можете редактировать свои сообщения
    Вы не можете удалять свои сообщения
    Вы не можете голосовать в опросах
    Вы не можете прикреплять файлы к сообщениям
    Вы не можете скачивать файлы