BitTorrentTracker PerecTracker.org
BitTorrentTracker PerecTracker.org
    
Регистрация  ·  Вход
 
 · 
Забыли пароль?

  • Баллада о солдате (Григорий Чухрай) [1959, СССР, драма, мелодрама, военный, BDRip HD (720p), SD] Original

    Ответить на тему
     
    Автор Сообщение

    rechyn

    Создавать темы 13-Мар-2015 22:56

           

    [Цитировать]

    Баллада о солдате
    "The Critics All Agree It's Great...And So Will You!"

    8.336 / 10
    -Год выпуска: 1959
    Страна: СССР
    Жанр: драма, мелодрама, военный
    Продолжительность: 89 мин.
    Перевод: Не требуется
    Оригинальная аудиодорожка: Есть
    Cубтитры: Нет
    Режиссёр: Григорий Чухрай
    Сценарий: Григорий Чухрай, Валентин Ежов
    Оператор: Владимир Николаев, Эра Савельева
    Композитор: Михаил Зив
    Художник: Борис Немечек, Людмила Ряшенцева
    Монтаж: Мария Тимофеева
    В ролях: Владимир Ивашов, Жанна Прохоренко, Антонина Максимова, Николай Крючков, Евгений Урбанский, Эльза Леждей, Александр Кузнецов, Евгений Тетерин, Валентина Маркова, Мария Кремнева
    Мировая премьера: 1 декабря 1959
    Релиз на Blu-Ray: 25 марта 2014, Lizard Cinema Trade
    Описание: Великая Отечественная война. Молодой солдат Алёша Скворцов совершает подвиг - подбивает два немецких танка. Командование собирается представить его к ордену, но Алёша просит дать ему отпуск, чтобы повидаться с мамой. Путь домой долог и непрост.
    Алеша помогает безногому инвалиду встретиться с женой, девушке Шуре - добраться до тетки. Даже последнюю ночь отпуска он проводит не под родной крышей, а спасая детей от бомбежки. И у солдата Скворцова остаётся всего несколько минут, чтобы обнять мать и сказать: "Я вернусь!"-Качество исходника: Blu-Ray 1080p (HDClub)
    Качество: BDRip
    Тип: 480p 720p
    Контейнер: m4v
    Видео: 640x480 анаморф 656x480 at 23.976 fps, MPEG-4 AVC, 1800 kbps avg
    Видео: 986x720 at 23.976 fps, MPEG-4 AVC, 6000 kbps avg
    Аудио#1: Russian: 48 kHz, ААС, 1/0 (C), ~160.00 / 256.00 kbps avg
    Аудио#2: Russian: 48 kHz, ААС, 2/0 (L,R), ~128.00 / 160.00 kbps avg
    Аудио#3: Russian: 48 kHz, AC3, 3/2 (L,C,R,l,r) + LFE ch, ~448.00 kbps avg-

    Знаете ли Вы, что...
  • Ради роли в фильме «Баллада о солдате» Жанна Прохоренко вынуждена была оставить учебу в училище МХАТа. По личной просьбе Чухрая молодую актрису после успешно сданных ей экзаменов взяли во ВГИК.
  • Действие фильма происходит в 1942 году, но военные в кадре одеты в форму образца 1943 года — с погонами вместо петлиц. Фронтовик Чухрай, конечно же, знал об этом несоответствии, но сознательно пошел на то, чтобы в картине присутствовал этот явный анахронизм. Режиссер рассчитывал, что фильм будут смотреть и иностранные зрители, которые увидели советских солдат-освободителей именно в новой форме, и стремился сделать облик главного героя более узнаваемым для них.
  • По словам Григория Чухрая, название «Баллада о солдате» предложил Михаил Ромм, после прочтения одного из вариантов сценария.
  • Работа над сценарием картины проходила на даче у Валентина Ежова. Там же в то же самое время создавал сценарий фильма «Жажда» (1959) Григорий Поженян.
  • Владимир Ивашов назвал своего первенца Алексеем в честь главного героя «Баллады о солдате».
  • В первый день съёмок (сцена с отъездом с фронта) Григорий Чухрай повредил ногу, при их возобновлении — заболел брюшным тифом.
  • Часть съёмочной группы ушла из-за разногласий с замыслом режиссёра.
  • Известная голливудская актриса, Лайза Минелли призналась в одном из интервью, что смотрела этот фильм пять раз подряд.
  • Первоначально Алешу Скворцова должен был сыграть Олег Стриженов, а Шуру — Лилия Алешникова. Вместо них Чухрай взял двух дебютантов — второкурсника ВГИКа Владимира Ивашова и студентку театрального училища МХАТ Жанну Прохоренко.
  • Большую часть первого варианта сценария занимало описание героического труда работников тыла, а Шура погибала в городе во время бомбежки.
    -

    iTunes Meta Tags for country ru

    Sort Name: Баллада о солдате
    XID: Apple:vendor_id:1959-46019
    contentID: 46019
    Screenwriters: Григорий Чухрай, Валентин Ежов
    Director: Григорий Чухрай
    Cast: Владимир Ивашов, Жанна Прохоренко, Антонина Максимова, Николай Крючков, Евгений Урбанский, Эльза Леждей, Александр Кузнецов, Евгений Тетерин, Валентина Маркова, Мария Кремнева
    Studio: Мосфильм
    Rating: 12+
    Long Description: Великая Отечественная война. Молодой солдат Алёша Скворцов совершает подвиг - подбивает два немецких танка. Командование собирается представить его к ордену, но Алёша просит дать ему отпуск, чтобы повидаться с мамой. Путь домой долог и непрост.
    Алеша помогает безногому инвалиду встретиться с женой, девушке Шуре - добраться до тетки. Даже последнюю ночь отпуска он проводит не под родной крышей, а спасая детей от бомбежки. И у солдата Скворцова остаётся всего несколько минут, чтобы обнять мать и сказать: "Я вернусь!"
    Description: Великая Отечественная война. Молодой солдат Алёша Скворцов совершает подвиг - подбивает два немецких танка. Командование собирается представить его к ордену, но Алёша просит дать ему отпуск, чтобы повидаться с мамой. Путь домой долог и непрост...
    Release Date: 1959-12-01T08:00:00Z
    Genre: Drama
    Artist: Григорий Чухрай
    Name: Баллада о солдате

    MediaInfo 480p Release

    General
    Complete name : Баллада о солдате.m4v
    Format : MPEG-4
    Codec ID : M4V
    File size : 1.29 GiB
    Duration : 1h 27mn
    Overall bit rate mode : Variable
    Overall bit rate : 2 101 Kbps
    Movie name : Баллада о солдате
    Performer : Григорий Чухрай
    Genre : Drama
    ContentType : Short Film
    Description : Великая Отечественная война. Молодой солдат Алёша Скворцов совершает подвиг - подбивает два немецких танка. Командование собирается представить его к ордену, но Алёша просит дать ему отпуск, чтобы повидаться с мамой. Путь домой долог и непрост...
    Recorded date : UTC 1959-12-01 08:00:00
    Encoded date : UTC 2015-02-19 07:20:02
    Tagged date : UTC 2015-02-19 07:27:29
    Cover : Yes
    Rating : None
    Title/Sort : Баллада о солдате
    LongDescription : Великая Отечественная война. Молодой солдат Алёша Скворцов совершает подвиг - подбивает два немецких танка. Командование собирается представить его к ордену, но Алёша просит дать ему отпуск, чтобы повидаться с мамой. Путь домой долог и непрост. / Алеша помогает безногому инвалиду встретиться с женой, девушке Шуре - добраться до тетки. Даже последнюю ночь отпуска он проводит не под родной крышей, а спасая детей от бомбежки. И у солдата Скворцова остаётся всего несколько минут, чтобы обнять мать и сказать: "Я вернусь!"
    AppleStoreCatalogID : 46019
    Vendor : Apple:vendor_id:1959-46019
    ContentRating : ru-movie|12+|200|
    iTunMOVI : <?xml version="1.0" encoding="UTF-8"?> / <!DOCTYPE plist PUBLIC "-//Apple//DTD PLIST 1.0//EN" "http://anonym.to/?http://www.apple.com/DTDs/PropertyList-1.0.dtd"> / <plist version="1.0"> / <dict> /  <key>cast</key> /  <array> /   <dict> /    <key>name</key> /    <string>Владимир Ивашов</string> /   </dict> /   <dict> /    <key>name</key> /    <string>Жанна Прохоренко</string> /   </dict> /   <dict> /    <key>name</key> /    <string>Антонина Максимова</string> /   </dict> /   <dict> /    <key>name</key> /    <string>Николай Крючков</string> /   </dict> /   <dict> /    <key>name</key> /    <string>Евгений Урбанский</string> /   </dict> /   <dict> /    <key>name</key> /    <string>Эльза Леждей</string> /   </dict> /   <dict> /    <key>name</key> /    <string>Александр Кузнецов</string> /   </dict> /   <dict> /    <key>name</key> /    <string>Евгений Тетерин</string> /   </dict> /   <dict> /    <key>name</key> /    <string>Валентина Маркова</string> /   </dict> /   <dict> /    <key>name</key> /    <string>Мария Кремнева</string> /   </dict> /  </array> /  <key>directors</key> /  <array> /   <dict> /    <key>name</key> /    <string>Григорий Чухрай</string> /   </dict> /  </array> /  <key>screenwriters</key> /  <array> /   <dict> /    <key>name</key> /    <string>Григорий Чухрай</string> /   </dict> /   <dict> /    <key>name</key> /    <string>Валентин Ежов</string> /   </dict> /  </array> /  <key>studio</key> /  <string>Мосфильм</string> / </dict> / </plist>
    Video #1
    ID : 1
    Format : AVC
    Format/Info : Advanced Video Codec
    Format profile : Baseline@L3.0
    Format settings, CABAC : No
    Format settings, ReFrames : 2 frames
    Codec ID : avc1
    Codec ID/Info : Advanced Video Coding
    Duration : 1h 27mn
    Bit rate : 1 800 Kbps
    Width : 640 pixels
    Height : 480 pixels
    Display aspect ratio : 4:3
    Frame rate mode : Variable
    Frame rate : 23.976 fps
    Minimum frame rate : 23.974 fps
    Maximum frame rate : 23.981 fps
    Color space : YUV
    Chroma subsampling : 4:2:0
    Bit depth : 8 bits
    Scan type : Progressive
    Bits/(Pixel*Frame) : 0.244
    Stream size : 1.10 GiB (86%)
    Writing library : x264 core 130 r2273 b3065e6
    Encoding settings : cabac=0 / ref=2 / deblock=1:0:0 / analyse=0x1:0x111 / me=umh / subme=6 / psy=1 / psy_rd=1.00:0.00 / mixed_ref=1 / me_range=16 / chroma_me=1 / trellis=0 / 8x8dct=0 / cqm=0 / deadzone=21,11 / fast_pskip=1 / chroma_qp_offset=-2 / threads=18 / lookahead_threads=3 / sliced_threads=0 / nr=0 / decimate=1 / interlaced=0 / bluray_compat=0 / constrained_intra=0 / bframes=0 / weightp=0 / keyint=240 / keyint_min=24 / scenecut=40 / intra_refresh=0 / rc_lookahead=40 / rc=2pass / mbtree=1 / bitrate=1800 / ratetol=1.0 / qcomp=0.60 / qpmin=0 / qpmax=69 / qpstep=4 / cplxblur=20.0 / qblur=0.5 / vbv_maxrate=5000 / vbv_bufsize=5000 / nal_hrd=none / ip_ratio=1.40 / aq=1:1.00
    Language : Russian
    Encoded date : UTC 2015-02-19 07:20:02
    Tagged date : UTC 2015-02-19 07:21:04
    Color primaries : BT.709
    Transfer characteristics : BT.709
    Matrix coefficients : BT.709
    Video #2
    ID : 5
    Format : JPEG
    Codec ID : jpeg
    Duration : 1h 27mn
    Bit rate mode : Variable
    Bit rate : 936 bps
    Width : 640 pixels
    Height : 468 pixels
    Display aspect ratio : 4:3
    Frame rate mode : Variable
    Frame rate : 0.002 fps
    Minimum frame rate : 0.002 fps
    Maximum frame rate : 0.003 fps
    Color space : YUV
    Chroma subsampling : 4:2:0
    Bit depth : 8 bits
    Compression mode : Lossy
    Bits/(Pixel*Frame) : 1.562
    Stream size : 685 KiB (0%)
    Language : Russian
    Encoded date : UTC 2015-02-19 07:21:16
    Tagged date : UTC 2015-02-19 07:21:16
    Audio #1
    ID : 2
    Format : AAC
    Format/Info : Advanced Audio Codec
    Format profile : LC
    Codec ID : 40
    Duration : 1h 27mn
    Bit rate mode : Variable
    Bit rate : 164 Kbps
    Maximum bit rate : 244 Kbps
    Channel(s) : 2 channels
    Channel(s)_Original : 1 channel
    Channel positions : Front: C
    Sampling rate : 48.0 KHz
    Compression mode : Lossy
    Stream size : 103 MiB (8%)
    Language : Russian
    Encoded date : UTC 2015-02-19 07:20:02
    Tagged date : UTC 2015-02-19 07:21:13
    Audio #2
    ID : 3
    Format : AAC
    Format/Info : Advanced Audio Codec
    Format profile : LC
    Codec ID : 40
    Duration : 1h 27mn
    Bit rate mode : Variable
    Bit rate : 132 Kbps
    Maximum bit rate : 233 Kbps
    Channel(s) : 2 channels
    Channel positions : Front: L R
    Sampling rate : 48.0 KHz
    Compression mode : Lossy
    Stream size : 82.2 MiB (6%)
    Language : Russian
    Encoded date : UTC 2015-02-19 07:20:02
    Tagged date : UTC 2015-02-19 07:21:12
    Menu #1
    00:00:00.000 : 1
    00:08:09.489 : 2
    00:14:30.870 : 3
    00:21:58.317 : 4
    00:28:28.707 : 5
    00:37:16.234 : 6
    00:46:02.760 : 7
    00:53:32.209 : 8
    01:02:45.762 : 9
    01:10:58.254 : 10
    01:17:56.672 : 11
    01:22:50.966 : 12
    Menu #2
    ID : 4
    Codec ID : text
    Duration : 1h 27mn
    Language : Russian
    Encoded date : UTC 2015-02-19 07:21:13
    Tagged date : UTC 2015-02-19 07:21:13
    00:00:00.000 : 1
    00:08:09.489 : 2
    00:14:30.870 : 3
    00:21:58.317 : 4
    00:28:28.707 : 5
    00:37:16.234 : 6
    00:46:02.760 : 7
    00:53:32.209 : 8
    01:02:45.762 : 9
    01:10:58.254 : 10
    01:17:56.672 : 11
    01:22:50.966 : 12
    Bit rate mode : VBR

    MediaInfo 720p Release

    General
    Complete name : Баллада о солдате (HD).m4v
    Format : MPEG-4
    Codec ID : M4V
    File size : 4.20 GiB
    Duration : 1h 27mn
    Overall bit rate mode : Variable
    Overall bit rate : 6 842 Kbps
    Movie name : Баллада о солдате
    Performer : Григорий Чухрай
    Genre : Drama
    ContentType : Short Film
    Description : Великая Отечественная война. Молодой солдат Алёша Скворцов совершает подвиг - подбивает два немецких танка. Командование собирается представить его к ордену, но Алёша просит дать ему отпуск, чтобы повидаться с мамой. Путь домой долог и непрост...
    Recorded date : UTC 1959-12-01 08:00:00
    Encoded date : UTC 2015-02-18 15:26:48
    Tagged date : UTC 2015-02-19 06:40:03
    Cover : Yes
    Rating : None
    Title/Sort : Баллада о солдате
    LongDescription : Великая Отечественная война. Молодой солдат Алёша Скворцов совершает подвиг - подбивает два немецких танка. Командование собирается представить его к ордену, но Алёша просит дать ему отпуск, чтобы повидаться с мамой. Путь домой долог и непрост. / Алеша помогает безногому инвалиду встретиться с женой, девушке Шуре - добраться до тетки. Даже последнюю ночь отпуска он проводит не под родной крышей, а спасая детей от бомбежки. И у солдата Скворцова остаётся всего несколько минут, чтобы обнять мать и сказать: "Я вернусь!"
    HDVideo : Yes
    AppleStoreCatalogID : 46019
    Vendor : Apple:vendor_id:1959-46019
    ContentRating : ru-movie|12+|200|
    iTunMOVI : <?xml version="1.0" encoding="UTF-8"?> / <!DOCTYPE plist PUBLIC "-//Apple//DTD PLIST 1.0//EN" "http://anonym.to/?http://www.apple.com/DTDs/PropertyList-1.0.dtd"> / <plist version="1.0"> / <dict> /  <key>cast</key> /  <array> /   <dict> /    <key>name</key> /    <string>Владимир Ивашов</string> /   </dict> /   <dict> /    <key>name</key> /    <string>Жанна Прохоренко</string> /   </dict> /   <dict> /    <key>name</key> /    <string>Антонина Максимова</string> /   </dict> /   <dict> /    <key>name</key> /    <string>Николай Крючков</string> /   </dict> /   <dict> /    <key>name</key> /    <string>Евгений Урбанский</string> /   </dict> /   <dict> /    <key>name</key> /    <string>Эльза Леждей</string> /   </dict> /   <dict> /    <key>name</key> /    <string>Александр Кузнецов</string> /   </dict> /   <dict> /    <key>name</key> /    <string>Евгений Тетерин</string> /   </dict> /   <dict> /    <key>name</key> /    <string>Валентина Маркова</string> /   </dict> /   <dict> /    <key>name</key> /    <string>Мария Кремнева</string> /   </dict> /  </array> /  <key>directors</key> /  <array> /   <dict> /    <key>name</key> /    <string>Григорий Чухрай</string> /   </dict> /  </array> /  <key>screenwriters</key> /  <array> /   <dict> /    <key>name</key> /    <string>Григорий Чухрай</string> /   </dict> /   <dict> /    <key>name</key> /    <string>Валентин Ежов</string> /   </dict> /  </array> /  <key>studio</key> /  <string>Мосфильм</string> / </dict> / </plist>
    Video #1
    ID : 1
    Format : AVC
    Format/Info : Advanced Video Codec
    Format profile : High@L3.1
    Format settings, CABAC : No
    Format settings, ReFrames : 3 frames
    Codec ID : avc1
    Codec ID/Info : Advanced Video Coding
    Duration : 1h 27mn
    Bit rate : 6 000 Kbps
    Width : 986 pixels
    Height : 720 pixels
    Display aspect ratio : 4:3
    Frame rate mode : Variable
    Frame rate : 23.976 fps
    Minimum frame rate : 23.974 fps
    Maximum frame rate : 23.981 fps
    Color space : YUV
    Chroma subsampling : 4:2:0
    Bit depth : 8 bits
    Scan type : Progressive
    Bits/(Pixel*Frame) : 0.353
    Stream size : 3.67 GiB (87%)
    Writing library : x264 core 130 r2273 b3065e6
    Encoding settings : cabac=0 / ref=3 / deblock=1:-3:-2 / analyse=0x3:0x113 / me=umh / subme=9 / psy=1 / psy_rd=0.90:0.25 / mixed_ref=1 / me_range=32 / chroma_me=1 / trellis=0 / 8x8dct=1 / cqm=0 / deadzone=6,6 / fast_pskip=0 / chroma_qp_offset=-2 / threads=18 / lookahead_threads=1 / sliced_threads=0 / nr=0 / decimate=0 / interlaced=0 / bluray_compat=0 / constrained_intra=0 / bframes=3 / b_pyramid=0 / b_adapt=2 / b_bias=0 / direct=1 / weightb=0 / open_gop=0 / weightp=0 / keyint=240 / keyint_min=24 / scenecut=40 / intra_refresh=0 / rc_lookahead=40 / rc=2pass / mbtree=1 / bitrate=6000 / ratetol=1.0 / qcomp=0.80 / qpmin=0 / qpmax=69 / qpstep=4 / cplxblur=20.0 / qblur=0.5 / vbv_maxrate=9500 / vbv_bufsize=9500 / nal_hrd=none / ip_ratio=1.10 / aq=1:0.50
    Language : Russian
    Encoded date : UTC 2015-02-18 15:26:48
    Tagged date : UTC 2015-02-18 15:33:00
    Color primaries : BT.709
    Transfer characteristics : BT.709
    Matrix coefficients : BT.709
    Video #2
    ID : 6
    Format : JPEG
    Codec ID : jpeg
    Duration : 1h 27mn
    Bit rate mode : Variable
    Bit rate : 974 bps
    Width : 640 pixels
    Height : 467 pixels
    Display aspect ratio : 1.370
    Frame rate mode : Variable
    Frame rate : 0.002 fps
    Minimum frame rate : 0.002 fps
    Maximum frame rate : 0.003 fps
    Color space : YUV
    Chroma subsampling : 4:2:0
    Bit depth : 8 bits
    Compression mode : Lossy
    Bits/(Pixel*Frame) : 1.629
    Stream size : 713 KiB (0%)
    Language : Russian
    Encoded date : UTC 2015-02-18 15:33:18
    Tagged date : UTC 2015-02-18 15:33:19
    Audio #1
    ID : 2
    Format : AAC
    Format/Info : Advanced Audio Codec
    Format profile : LC
    Codec ID : 40
    Duration : 1h 27mn
    Bit rate mode : Variable
    Bit rate : 242 Kbps
    Maximum bit rate : 252 Kbps
    Channel(s) : 2 channels
    Channel(s)_Original : 1 channel
    Channel positions : Front: C
    Sampling rate : 48.0 KHz
    Compression mode : Lossy
    Stream size : 152 MiB (4%)
    Language : Russian
    Encoded date : UTC 2015-02-18 15:26:48
    Tagged date : UTC 2015-02-18 15:33:12
    Audio #2
    ID : 3
    Format : AAC
    Format/Info : Advanced Audio Codec
    Format profile : LC
    Codec ID : 40
    Duration : 1h 27mn
    Bit rate mode : Variable
    Bit rate : 163 Kbps
    Maximum bit rate : 278 Kbps
    Channel(s) : 2 channels
    Channel positions : Front: L R
    Sampling rate : 48.0 KHz
    Compression mode : Lossy
    Stream size : 102 MiB (2%)
    Language : Russian
    Encoded date : UTC 2015-02-18 15:26:48
    Tagged date : UTC 2015-02-18 15:33:12
    Audio #3
    ID : 4
    Format : AC-3
    Format/Info : Audio Coding 3
    Mode extension : CM (complete main)
    Format settings, Endianness : Big
    Codec ID : ac-3
    Duration : 1h 27mn
    Bit rate mode : Constant
    Bit rate : 448 Kbps
    Channel(s) : 6 channels
    Channel positions : Front: L C R, Side: L R, LFE
    Sampling rate : 48.0 KHz
    Bit depth : 16 bits
    Compression mode : Lossy
    Stream size : 282 MiB (7%)
    Language : Russian
    Encoded date : UTC 2015-02-18 15:26:48
    Tagged date : UTC 2015-02-18 15:27:20
    Menu #1
    00:00:00.000 : 1
    00:08:09.489 : 2
    00:14:30.870 : 3
    00:21:58.317 : 4
    00:28:28.707 : 5
    00:37:16.234 : 6
    00:46:02.760 : 7
    00:53:32.209 : 8
    01:02:45.762 : 9
    01:10:58.254 : 10
    01:17:56.672 : 11
    01:22:50.966 : 12
    Menu #2
    ID : 5
    Codec ID : text
    Duration : 1h 27mn
    Language : Russian
    Encoded date : UTC 2015-02-18 15:33:12
    Tagged date : UTC 2015-02-18 15:33:12
    00:00:00.000 : 1
    00:08:09.489 : 2
    00:14:30.870 : 3
    00:21:58.317 : 4
    00:28:28.707 : 5
    00:37:16.234 : 6
    00:46:02.760 : 7
    00:53:32.209 : 8
    01:02:45.762 : 9
    01:10:58.254 : 10
    01:17:56.672 : 11
    01:22:50.966 : 12
    Bit rate mode : VBR

    x264 лог 480p Release

    HandBrakeCLI -i "ZOLD_BALLADA_HDCLUB/BDMV/STREAM/00006.m2ts" -t 1 -o Zold.Ballad.480p.rus.m4v -f mp4 -I  -O  -w 640 -l 480 --crop 0:0:220:220 --custom-anamorphic  --modulus 16 --pixel-aspect 656:640  -e x264 -b 1800 -2  -a none -x cabac=0:ref=2:me=umh:bframes=0:weightp=0:subq=6:8x8dct=0:trellis=0:vbv-maxrate=5000:vbv-bufsize=5000 --verbose=1
    x264 [info]: frame I:1448  Avg QP:17.59  size: 30374  PSNR Mean Y:46.91 U:99.98 V:100.00 Avg:48.67 Global:47.30
    x264 [info]: frame P:125043 Avg QP:20.01  size:  9137  PSNR Mean Y:43.20 U:99.95 V:99.99 Avg:44.96 Global:44.60
    x264 [info]: mb I  I16..4: 29.8%  0.0% 70.2%
    x264 [info]: mb P  I16..4:  0.5%  0.0%  3.9%  P16..4: 41.9% 22.7%  9.6%  0.0%  0.0%    skip:21.4%
    x264 [info]: coded y,uvDC,uvAC intra: 81.8% 0.0% 0.0% inter: 33.2% 0.0% 0.0%
    x264 [info]: i16 v,h,dc,p: 40% 16%  5% 38%
    x264 [info]: i4 v,h,dc,ddl,ddr,vr,hd,vl,hu: 22% 16% 12%  7%  9%  9%  8%  8%  7%
    x264 [info]: i8c dc,h,v,p: 100%  0%  0%  0%
    x264 [info]: ref P L0: 81.0% 19.0%
    x264 [info]: SSIM Mean Y:0.9812180 (17.263db)
    x264 [info]: PSNR Mean Y:43.241 U:99.955 V:99.992 Avg:45.002 Global:44.625 kb/s:1799.13

    x264 лог 720p Release

    HandBrakeCLI -i ZOLD_BALLADA_HDCLUB/BDMV/STREAM/00006.m2ts -t 1 -o Zold.Ballada.720p.rus.m4v -f mp4 -4 -O  -w 986 -l 720 --crop 0:0:220:220 --modulus 16 -e x264 -b 6000 -2 -a none -x cabac=0:ref=3:me=umh:b-pyramid=none:b-adapt=2:weightb=0:trellis=0:weightp=0:vbv-maxrate=9500:vbv-bufsize=9500:subq=9:merange=32:deblock=-3,-2:qcomp=0.80:qpmin=0:qpmax=69:fast_pskip=0:aq-strength=0.5:no-dct-decimate=1:psy-rd=0.90,0.25:ipratio=1.1:pbratio=1.1:deadzone-inter=6:deadzone-intra=6 --verbose=1
    x264 [info]: frame I:802   Avg QP:17.42  size: 93144  PSNR Mean Y:47.02 U:99.95 V:99.99 Avg:48.78 Global:48.41
    x264 [info]: frame P:48272 Avg QP:18.43  size: 55769  PSNR Mean Y:45.83 U:99.98 V:99.98 Avg:47.59 Global:47.29
    x264 [info]: frame B:77417 Avg QP:20.42  size: 15218  PSNR Mean Y:44.91 U:99.97 V:99.98 Avg:46.67 Global:46.36
    x264 [info]: consecutive B-frames:  2.1% 27.5% 63.8%  6.6%
    x264 [info]: mb I  I16..4:  6.5% 58.8% 34.8%
    x264 [info]: mb P  I16..4:  0.8%  9.3%  4.1%  P16..4: 42.8% 28.8% 13.7%  0.0%  0.0%    skip: 0.5%
    x264 [info]: mb B  I16..4:  0.1%  1.6%  0.8%  B16..8: 30.0% 13.0%  2.7%  direct: 4.9%  skip:47.0%  L0:29.3% L1:43.3% BI:27.4%
    x264 [info]: 8x8 transform intra:64.3% inter:40.0%
    x264 [info]: coded y,uvDC,uvAC intra: 95.8% 0.0% 0.0% inter: 46.0% 0.0% 0.0%
    x264 [info]: i16 v,h,dc,p: 31% 13%  5% 51%
    x264 [info]: i8 v,h,dc,ddl,ddr,vr,hd,vl,hu: 10%  9%  4% 10% 15% 15% 14% 12% 12%
    x264 [info]: i4 v,h,dc,ddl,ddr,vr,hd,vl,hu: 11% 11%  2% 10% 16% 15% 14% 11% 10%
    x264 [info]: i8c dc,h,v,p: 100%  0%  0%  0%
    x264 [info]: ref P L0: 81.7% 11.3%  7.0%
    x264 [info]: ref B L0: 89.1% 10.9%
    x264 [info]: SSIM Mean Y:0.9827826 (17.640db)
    x264 [info]: PSNR Mean Y:45.275 U:99.973 V:99.982 Avg:47.035 Global:46.704 kb/s:5981.96

    Скриншоты 480p Release

    Скриншоты 720p Release

    -

    Релиз подготовлен для просмотра на Apple TV, iPad, iPhone, iPod Touch.
    Для просмотра данного релиза на компьютере с ОС Windows рекомендуется использовать VLC media player
    Скачать .torrent

    Скачать торрент-файл бесплатно и на максимальной скорости!

    Как скачивать? · Что такое торрент? · Рейтинг и ограничения

    !ВНИМАНИЕ!
    Сайт не распространяет и не хранит электронные версии произведений, а занимается лишь лишь предоставлением доступа к создаваемому пользователями каталогу ссылок на торрент-файлы, которые содержат только списки хеш-сумм, убедительная просьба с жалобами обращаться напрямую к пользователю. Файлы для обмена на трекере предоставлены пользователями сайта, и администрация не несёт ответственности за их содержание. Просьба не заливать файлы, защищенные авторскими правами, а также файлы нелегального содержания!


  • _________________
    [Профиль] [ЛС]
    Показать сообщения:    
    Ответить на тему

    Текущее время: Сегодня, в 13:54

    Часовой пояс: GMT + 2



    Вы не можете начинать темы
    Вы не можете отвечать на сообщения
    Вы не можете редактировать свои сообщения
    Вы не можете удалять свои сообщения
    Вы не можете голосовать в опросах
    Вы не можете прикреплять файлы к сообщениям
    Вы не можете скачивать файлы