BitTorrentTracker PerecTracker.org
BitTorrentTracker PerecTracker.org
    
Регистрация  ·  Вход
 
 · 
Забыли пароль?

  • Майор (Юрий Быков) [2013, Россия, криминал, драма, BDRip HD (1080p, 720p), SD] Original

    Ответить на тему
     
    Автор Сообщение

    rechyn

    Создавать темы 13-Мар-2015 22:56

           

    [Цитировать]

    Майор
    "Майор - просто человек"
    7.368 / 10
    -Год выпуска: 2013
    Страна: Россия
    Жанр: криминал, драма
    Продолжительность: 99 мин.
    Перевод: Не требуется
    Оригинальная аудиодорожка: Есть
    Cубтитры: Нет
    Режиссёр: Юрий Быков
    Сценарий: Юрий Быков
    Продюсер: Алексей Учитель, Кира Саксаганская, Алексей Алексеев
    Оператор: Кирилл Клепалов
    Композитор: Юрий Быков
    Художник: Елена Шмакова, Александр Мордовин
    Монтаж: Юрий Быков
    В ролях: Денис Шведов, Ирина Низина, Юрий Быков, Дмитрий Куличков, Кирилл Полухин, Борис Невзоров, Илья Исаев, Владислав Толдыков, Евгений Кочетков, Павел Басов
    Бюджет: $2 000 000
    Сборы в России: $120 966
    Мировая премьера: 28 июня 2013
    Премьера (РФ): 8 августа 2013, Bazelevs Distribution
    Описание: В день долгожданных родов своей жены майор полиции Сергей Соболев мчится в роддом вне себя от счастья. На скользкой зимней дороге он насмерть сбивает семилетнего мальчика на глазах у несчастной матери. Превышение скорости, неосторожность и пешеходный переход - доказательства очевидны, как и нежелание молодого отца угодить за решетку. Майор использует свое служебное положение, чтобы оправдать себя... Сам того не желая, он запускает целую череду смертей, остановить которую решится слишком поздно.-Качество исходника: Blu-Ray 1080p
    Качество: BDRip
    Тип: 480p 720p 1080p
    Контейнер: m4v
    Видео: 640x354 анаморф 852x354 at 24.000 fps, MPEG-4 AVC, 1800 kbps avg
    Видео: 1280x534 at 24.000 fps, MPEG-4 AVC, 5000 kbps avg
    Видео: 1920x802 at 24.000 fps, MPEG-4 AVC, 8500 kbps avg
    Аудио#1: Russian: 48 kHz, ААС, 2/0 (L,R), ~128.00 / 192.00 kbps avg
    Аудио#2: Russian: 48 kHz, AC3, 3/2 (L,C,R,l,r) + LFE ch, ~640.00 kbps avg-

    Знаете ли Вы, что...
  • Режиссёр Юрий Быков признал, что на образ майора Соболева повлиял небезызвестный майор Денис Евсюков, расстрелявший несколько человек в московском супермаркете «Остров».
    -

    iTunes Meta Tags for country ru

    Name: Майор
    Artist: Юрий Быков
    Genre: Drama
    Release Date: 2013-06-28T08:00:00Z
    Description: В день долгожданных родов своей жены майор полиции Сергей Соболев мчится в роддом вне себя от счастья. На скользкой зимней дороге он насмерть сбивает семилетнего мальчика на глазах у несчастной матери. Превышение скорости, неосторожность и пешеходный переход - доказательства очевидны, как и нежелание молодого отца угодить за решетку...
    Long Description: В день долгожданных родов своей жены майор полиции Сергей Соболев мчится в роддом вне себя от счастья. На скользкой зимней дороге он насмерть сбивает семилетнего мальчика на глазах у несчастной матери. Превышение скорости, неосторожность и пешеходный переход - доказательства очевидны, как и нежелание молодого отца угодить за решетку. Майор использует свое служебное положение, чтобы оправдать себя... Сам того не желая, он запускает целую череду смертей, остановить которую решится слишком поздно.
    Rating: 18+
    Studio: ООО "ТПО "РОК"
    Cast: Денис Шведов, Ирина Низина, Юрий Быков, Дмитрий Куличков, Кирилл Полухин, Борис Невзоров, Илья Исаев, Владислав Толдыков, Евгений Кочетков, Павел Басов
    Director: Юрий Быков
    Producers: Алексей Учитель, Кира Саксаганская, Алексей Алексеев
    Screenwriters: Юрий Быков
    Copyright: © 2013, ООО "ТПО "РОК"
    contentID: 833682139
    XID: Apple:vendor_id:2013-675498
    Sort Name: Майор

    MediaInfo 480p Release

    General
    Complete name : Майор.m4v
    Format : MPEG-4
    Codec ID : M4V
    File size : 1.34 GiB
    Duration : 1h 39mn
    Overall bit rate mode : Variable
    Overall bit rate : 1 936 Kbps
    Movie name : Майор
    Performer : Юрий Быков
    Genre : Drama
    ContentType : Short Film
    Description : В день долгожданных родов своей жены майор полиции Сергей Соболев мчится в роддом вне себя от счастья. На скользкой зимней дороге он насмерть сбивает семилетнего мальчика на глазах у несчастной матери. Превышение скорости, неосторожность и пешеходный переход - доказательства очевидны, как и нежелание молодого отца угодить за решетку...
    Recorded date : UTC 2013-06-28 08:00:00
    Encoded date : UTC 2015-02-27 09:39:41
    Tagged date : UTC 2015-02-27 09:42:06
    Copyright : © 2013, ООО "ТПО "РОК"
    Cover : Yes
    Rating : None
    Title/Sort : Майор
    LongDescription : В день долгожданных родов своей жены майор полиции Сергей Соболев мчится в роддом вне себя от счастья. На скользкой зимней дороге он насмерть сбивает семилетнего мальчика на глазах у несчастной матери. Превышение скорости, неосторожность и пешеходный переход - доказательства очевидны, как и нежелание молодого отца угодить за решетку. Майор использует свое служебное положение, чтобы оправдать себя... Сам того не желая, он запускает целую череду смертей, остановить которую решится слишком поздно.
    AppleStoreCatalogID : 833682139
    Vendor : Apple:vendor_id:2013-675498
    ContentRating : ru-movie|18+|400|
    iTunMOVI : <?xml version="1.0" encoding="UTF-8"?> / <!DOCTYPE plist PUBLIC "-//Apple//DTD PLIST 1.0//EN" "http://anonym.to/?http://www.apple.com/DTDs/PropertyList-1.0.dtd"> / <plist version="1.0"> / <dict> /  <key>cast</key> /  <array> /   <dict> /    <key>name</key> /    <string>Денис Шведов</string> /   </dict> /   <dict> /    <key>name</key> /    <string>Ирина Низина</string> /   </dict> /   <dict> /    <key>name</key> /    <string>Юрий Быков</string> /   </dict> /   <dict> /    <key>name</key> /    <string>Дмитрий Куличков</string> /   </dict> /   <dict> /    <key>name</key> /    <string>Кирилл Полухин</string> /   </dict> /   <dict> /    <key>name</key> /    <string>Борис Невзоров</string> /   </dict> /   <dict> /    <key>name</key> /    <string>Илья Исаев</string> /   </dict> /   <dict> /    <key>name</key> /    <string>Владислав Толдыков</string> /   </dict> /   <dict> /    <key>name</key> /    <string>Евгений Кочетков</string> /   </dict> /   <dict> /    <key>name</key> /    <string>Павел Басов</string> /   </dict> /  </array> /  <key>directors</key> /  <array> /   <dict> /    <key>name</key> /    <string>Юрий Быков</string> /   </dict> /  </array> /  <key>producers</key> /  <array> /   <dict> /    <key>name</key> /    <string>Алексей Учитель</string> /   </dict> /   <dict> /    <key>name</key> /    <string>Кира Саксаганская</string> /   </dict> /   <dict> /    <key>name</key> /    <string>Алексей Алексеев</string> /   </dict> /  </array> /  <key>screenwriters</key> /  <array> /   <dict> /    <key>name</key> /    <string>Юрий Быков</string> /   </dict> /  </array> /  <key>studio</key> /  <string>ООО "ТПО "РОК"</string> / </dict> / </plist>
    Video #1
    ID : 1
    Format : AVC
    Format/Info : Advanced Video Codec
    Format profile : Baseline@L3.0
    Format settings, CABAC : No
    Format settings, ReFrames : 2 frames
    Codec ID : avc1
    Codec ID/Info : Advanced Video Coding
    Duration : 1h 39mn
    Duration_LastFrame : 42ms
    Bit rate : 1 800 Kbps
    Width : 640 pixels
    Height : 354 pixels
    Display aspect ratio : 2.40:1
    Original display aspect ratio : 2.40:1
    Frame rate mode : Constant
    Frame rate : 24.000 fps
    Color space : YUV
    Chroma subsampling : 4:2:0
    Bit depth : 8 bits
    Scan type : Progressive
    Bits/(Pixel*Frame) : 0.331
    Stream size : 1.25 GiB (93%)
    Writing library : x264 core 130 r2273 b3065e6
    Encoding settings : cabac=0 / ref=2 / deblock=1:0:0 / analyse=0x1:0x111 / me=umh / subme=6 / psy=1 / psy_rd=1.00:0.00 / mixed_ref=1 / me_range=16 / chroma_me=1 / trellis=0 / 8x8dct=0 / cqm=0 / deadzone=21,11 / fast_pskip=1 / chroma_qp_offset=-2 / threads=18 / lookahead_threads=2 / sliced_threads=0 / nr=0 / decimate=1 / interlaced=0 / bluray_compat=0 / constrained_intra=0 / bframes=0 / weightp=0 / keyint=240 / keyint_min=24 / scenecut=40 / intra_refresh=0 / rc_lookahead=40 / rc=2pass / mbtree=1 / bitrate=1800 / ratetol=1.0 / qcomp=0.60 / qpmin=0 / qpmax=69 / qpstep=4 / cplxblur=20.0 / qblur=0.5 / vbv_maxrate=5000 / vbv_bufsize=5000 / nal_hrd=none / ip_ratio=1.40 / aq=1:1.00
    Language : Russian
    Encoded date : UTC 2015-02-27 09:39:41
    Tagged date : UTC 2015-02-27 09:40:56
    Color primaries : BT.709
    Transfer characteristics : BT.709
    Matrix coefficients : BT.709
    Video #2
    ID : 4
    Format : JPEG
    Codec ID : jpeg
    Duration : 1h 39mn
    Bit rate mode : Variable
    Bit rate : 479 bps
    Width : 640 pixels
    Height : 265 pixels
    Display aspect ratio : 2.40:1
    Frame rate mode : Variable
    Frame rate : 0.002 fps
    Minimum frame rate : 0.001 fps
    Maximum frame rate : 0.024 fps
    Color space : YUV
    Chroma subsampling : 4:2:0
    Bit depth : 8 bits
    Compression mode : Lossy
    Bits/(Pixel*Frame) : 1.412
    Stream size : 263 KiB (0%)
    Language : Russian
    Encoded date : UTC 2015-02-27 09:41:05
    Tagged date : UTC 2015-02-27 09:41:05
    Audio
    ID : 2
    Format : AAC
    Format/Info : Advanced Audio Codec
    Format profile : LC
    Codec ID : 40
    Duration : 1h 39mn
    Bit rate mode : Variable
    Bit rate : 132 Kbps
    Maximum bit rate : 223 Kbps
    Channel(s) : 2 channels
    Channel positions : Front: L R
    Sampling rate : 48.0 KHz
    Compression mode : Lossy
    Stream size : 93.0 MiB (7%)
    Language : Russian
    Encoded date : UTC 2015-02-27 09:39:41
    Tagged date : UTC 2015-02-27 09:41:02
    Menu #1
    00:00:00.000 : 1
    00:00:41.000 : 2
    00:08:35.583 : 3
    00:23:31.875 : 4
    00:29:56.750 : 5
    00:44:46.083 : 6
    01:02:40.875 : 7
    01:12:17.667 : 8
    01:17:41.958 : 9
    Menu #2
    ID : 3
    Codec ID : text
    Duration : 1h 39mn
    Language : Russian
    Encoded date : UTC 2015-02-27 09:41:02
    Tagged date : UTC 2015-02-27 09:41:02
    Bit rate mode : CBR
    00:00:00.000 : 1
    00:00:41.000 : 2
    00:08:35.583 : 3
    00:23:31.875 : 4
    00:29:56.750 : 5
    00:44:46.083 : 6
    01:02:40.875 : 7
    01:12:17.667 : 8
    01:17:41.958 : 9

    MediaInfo 720p Release

    General
    Complete name : Майор (HD).m4v
    Format : MPEG-4
    Codec ID : M4V
    File size : 4.05 GiB
    Duration : 1h 39mn
    Overall bit rate mode : Variable
    Overall bit rate : 5 842 Kbps
    Movie name : Майор
    Performer : Юрий Быков
    Genre : Drama
    ContentType : Short Film
    Description : В день долгожданных родов своей жены майор полиции Сергей Соболев мчится в роддом вне себя от счастья. На скользкой зимней дороге он насмерть сбивает семилетнего мальчика на глазах у несчастной матери. Превышение скорости, неосторожность и пешеходный переход - доказательства очевидны, как и нежелание молодого отца угодить за решетку...
    Recorded date : UTC 2013-06-28 08:00:00
    Encoded date : UTC 2015-02-27 08:40:35
    Tagged date : UTC 2015-02-27 09:33:29
    Copyright : © 2013, ООО "ТПО "РОК"
    Cover : Yes
    Rating : None
    Title/Sort : Майор
    LongDescription : В день долгожданных родов своей жены майор полиции Сергей Соболев мчится в роддом вне себя от счастья. На скользкой зимней дороге он насмерть сбивает семилетнего мальчика на глазах у несчастной матери. Превышение скорости, неосторожность и пешеходный переход - доказательства очевидны, как и нежелание молодого отца угодить за решетку. Майор использует свое служебное положение, чтобы оправдать себя... Сам того не желая, он запускает целую череду смертей, остановить которую решится слишком поздно.
    HDVideo : Yes
    AppleStoreCatalogID : 833682139
    Vendor : Apple:vendor_id:2013-675498
    ContentRating : ru-movie|18+|400|
    iTunMOVI : <?xml version="1.0" encoding="UTF-8"?> / <!DOCTYPE plist PUBLIC "-//Apple//DTD PLIST 1.0//EN" "http://anonym.to/?http://www.apple.com/DTDs/PropertyList-1.0.dtd"> / <plist version="1.0"> / <dict> /  <key>cast</key> /  <array> /   <dict> /    <key>name</key> /    <string>Денис Шведов</string> /   </dict> /   <dict> /    <key>name</key> /    <string>Ирина Низина</string> /   </dict> /   <dict> /    <key>name</key> /    <string>Юрий Быков</string> /   </dict> /   <dict> /    <key>name</key> /    <string>Дмитрий Куличков</string> /   </dict> /   <dict> /    <key>name</key> /    <string>Кирилл Полухин</string> /   </dict> /   <dict> /    <key>name</key> /    <string>Борис Невзоров</string> /   </dict> /   <dict> /    <key>name</key> /    <string>Илья Исаев</string> /   </dict> /   <dict> /    <key>name</key> /    <string>Владислав Толдыков</string> /   </dict> /   <dict> /    <key>name</key> /    <string>Евгений Кочетков</string> /   </dict> /   <dict> /    <key>name</key> /    <string>Павел Басов</string> /   </dict> /  </array> /  <key>directors</key> /  <array> /   <dict> /    <key>name</key> /    <string>Юрий Быков</string> /   </dict> /  </array> /  <key>producers</key> /  <array> /   <dict> /    <key>name</key> /    <string>Алексей Учитель</string> /   </dict> /   <dict> /    <key>name</key> /    <string>Кира Саксаганская</string> /   </dict> /   <dict> /    <key>name</key> /    <string>Алексей Алексеев</string> /   </dict> /  </array> /  <key>screenwriters</key> /  <array> /   <dict> /    <key>name</key> /    <string>Юрий Быков</string> /   </dict> /  </array> /  <key>studio</key> /  <string>ООО "ТПО "РОК"</string> / </dict> / </plist>
    Video #1
    ID : 1
    Format : AVC
    Format/Info : Advanced Video Codec
    Format profile : High@L3.1
    Format settings, CABAC : No
    Format settings, ReFrames : 3 frames
    Codec ID : avc1
    Codec ID/Info : Advanced Video Coding
    Duration : 1h 39mn
    Source duration : 1h 39mn
    Nominal bit rate : 5 000 Kbps
    Width : 1 280 pixels
    Height : 534 pixels
    Display aspect ratio : 2.40:1
    Frame rate mode : Constant
    Frame rate : 24.000 fps
    Color space : YUV
    Chroma subsampling : 4:2:0
    Bit depth : 8 bits
    Scan type : Progressive
    Bits/(Pixel*Frame) : 0.305
    Source stream size : 3.47 GiB (86%)
    Writing library : x264 core 130 r2273 b3065e6
    Encoding settings : cabac=0 / ref=3 / deblock=1:-3:-2 / analyse=0x3:0x113 / me=umh / subme=9 / psy=1 / psy_rd=1.00:0.25 / mixed_ref=1 / me_range=32 / chroma_me=1 / trellis=0 / 8x8dct=1 / cqm=0 / deadzone=21,11 / fast_pskip=0 / chroma_qp_offset=-2 / threads=18 / lookahead_threads=1 / sliced_threads=0 / nr=0 / decimate=0 / interlaced=0 / bluray_compat=0 / constrained_intra=0 / bframes=3 / b_pyramid=0 / b_adapt=2 / b_bias=0 / direct=1 / weightb=0 / open_gop=0 / weightp=0 / keyint=240 / keyint_min=24 / scenecut=40 / intra_refresh=0 / rc_lookahead=40 / rc=2pass / mbtree=1 / bitrate=5000 / ratetol=1.0 / qcomp=0.60 / qpmin=0 / qpmax=69 / qpstep=4 / cplxblur=20.0 / qblur=0.5 / vbv_maxrate=9500 / vbv_bufsize=9500 / nal_hrd=none / ip_ratio=1.40 / aq=1:0.80
    Language : Russian
    Encoded date : UTC 2015-02-27 08:40:35
    Tagged date : UTC 2015-02-27 08:45:37
    Color primaries : BT.709
    Transfer characteristics : BT.709
    Matrix coefficients : BT.709
    Video #2
    ID : 5
    Format : JPEG
    Codec ID : jpeg
    Duration : 1h 39mn
    Bit rate mode : Variable
    Bit rate : 491 bps
    Width : 640 pixels
    Height : 267 pixels
    Display aspect ratio : 2.40:1
    Frame rate mode : Variable
    Frame rate : 0.002 fps
    Minimum frame rate : 0.001 fps
    Maximum frame rate : 0.024 fps
    Color space : YUV
    Chroma subsampling : 4:2:0
    Bit depth : 8 bits
    Compression mode : Lossy
    Bits/(Pixel*Frame) : 1.437
    Stream size : 270 KiB (0%)
    Language : Russian
    Encoded date : UTC 2015-02-27 08:51:15
    Tagged date : UTC 2015-02-27 08:51:15
    Audio #1
    ID : 2
    Format : AAC
    Format/Info : Advanced Audio Codec
    Format profile : LC
    Codec ID : 40
    Duration : 1h 39mn
    Bit rate mode : Variable
    Bit rate : 192 Kbps
    Maximum bit rate : 329 Kbps
    Channel(s) : 2 channels
    Channel positions : Front: L R
    Sampling rate : 48.0 KHz
    Compression mode : Lossy
    Stream size : 139 MiB (3%)
    Language : Russian
    Encoded date : UTC 2015-02-27 08:40:35
    Tagged date : UTC 2015-02-27 08:51:10
    Audio #2
    ID : 3
    Format : AC-3
    Format/Info : Audio Coding 3
    Mode extension : CM (complete main)
    Format settings, Endianness : Big
    Codec ID : ac-3
    Duration : 1h 39mn
    Bit rate mode : Constant
    Bit rate : 640 Kbps
    Channel(s) : 6 channels
    Channel positions : Front: L C R, Side: L R, LFE
    Sampling rate : 48.0 KHz
    Bit depth : 16 bits
    Compression mode : Lossy
    Stream size : 455 MiB (11%)
    Language : Russian
    Encoded date : UTC 2015-02-27 08:40:35
    Tagged date : UTC 2015-02-27 08:51:10
    Menu #1
    00:00:00.000 : 1
    00:00:41.000 : 2
    00:08:35.583 : 3
    00:23:31.875 : 4
    00:29:56.750 : 5
    00:44:46.083 : 6
    01:02:40.875 : 7
    01:12:17.667 : 8
    01:17:41.958 : 9
    Menu #2
    ID : 4
    Codec ID : text
    Duration : 1h 39mn
    Language : Russian
    Encoded date : UTC 2015-02-27 08:51:10
    Tagged date : UTC 2015-02-27 08:51:10
    Bit rate mode : CBR
    00:00:00.000 : 1
    00:00:41.000 : 2
    00:08:35.583 : 3
    00:23:31.875 : 4
    00:29:56.750 : 5
    00:44:46.083 : 6
    01:02:40.875 : 7
    01:12:17.667 : 8
    01:17:41.958 : 9

    MediaInfo 1080p Release

    General
    Complete name : Майор (1080p HD).m4v
    Format : MPEG-4
    Codec ID : M4V
    File size : 6.48 GiB
    Duration : 1h 39mn
    Overall bit rate mode : Variable
    Overall bit rate : 9 341 Kbps
    Movie name : Майор
    Performer : Юрий Быков
    Genre : Drama
    ContentType : Short Film
    Description : В день долгожданных родов своей жены майор полиции Сергей Соболев мчится в роддом вне себя от счастья. На скользкой зимней дороге он насмерть сбивает семилетнего мальчика на глазах у несчастной матери. Превышение скорости, неосторожность и пешеходный переход - доказательства очевидны, как и нежелание молодого отца угодить за решетку...
    Recorded date : UTC 2013-06-28 08:00:00
    Encoded date : UTC 2015-02-27 06:25:59
    Tagged date : UTC 2015-02-27 07:20:36
    Copyright : © 2013, ООО "ТПО "РОК"
    Cover : Yes
    Rating : None
    Title/Sort : Майор
    LongDescription : В день долгожданных родов своей жены майор полиции Сергей Соболев мчится в роддом вне себя от счастья. На скользкой зимней дороге он насмерть сбивает семилетнего мальчика на глазах у несчастной матери. Превышение скорости, неосторожность и пешеходный переход - доказательства очевидны, как и нежелание молодого отца угодить за решетку. Майор использует свое служебное положение, чтобы оправдать себя... Сам того не желая, он запускает целую череду смертей, остановить которую решится слишком поздно.
    AppleStoreCatalogID : 833682139
    Vendor : Apple:vendor_id:2013-675498
    ContentRating : ru-movie|18+|400|
    iTunMOVI : <?xml version="1.0" encoding="UTF-8"?> / <!DOCTYPE plist PUBLIC "-//Apple//DTD PLIST 1.0//EN" "http://anonym.to/?http://www.apple.com/DTDs/PropertyList-1.0.dtd"> / <plist version="1.0"> / <dict> /  <key>cast</key> /  <array> /   <dict> /    <key>name</key> /    <string>Денис Шведов</string> /   </dict> /   <dict> /    <key>name</key> /    <string>Ирина Низина</string> /   </dict> /   <dict> /    <key>name</key> /    <string>Юрий Быков</string> /   </dict> /   <dict> /    <key>name</key> /    <string>Дмитрий Куличков</string> /   </dict> /   <dict> /    <key>name</key> /    <string>Кирилл Полухин</string> /   </dict> /   <dict> /    <key>name</key> /    <string>Борис Невзоров</string> /   </dict> /   <dict> /    <key>name</key> /    <string>Илья Исаев</string> /   </dict> /   <dict> /    <key>name</key> /    <string>Владислав Толдыков</string> /   </dict> /   <dict> /    <key>name</key> /    <string>Евгений Кочетков</string> /   </dict> /   <dict> /    <key>name</key> /    <string>Павел Басов</string> /   </dict> /  </array> /  <key>directors</key> /  <array> /   <dict> /    <key>name</key> /    <string>Юрий Быков</string> /   </dict> /  </array> /  <key>producers</key> /  <array> /   <dict> /    <key>name</key> /    <string>Алексей Учитель</string> /   </dict> /   <dict> /    <key>name</key> /    <string>Кира Саксаганская</string> /   </dict> /   <dict> /    <key>name</key> /    <string>Алексей Алексеев</string> /   </dict> /  </array> /  <key>screenwriters</key> /  <array> /   <dict> /    <key>name</key> /    <string>Юрий Быков</string> /   </dict> /  </array> /  <key>studio</key> /  <string>ООО "ТПО "РОК"</string> / </dict> / </plist>
    Video #1
    ID : 1
    Format : AVC
    Format/Info : Advanced Video Codec
    Format profile : High@L4.0
    Format settings, CABAC : Yes
    Format settings, ReFrames : 4 frames
    Codec ID : avc1
    Codec ID/Info : Advanced Video Coding
    Duration : 1h 39mn
    Source duration : 1h 39mn
    Nominal bit rate : 8 500 Kbps
    Width : 1 920 pixels
    Height : 802 pixels
    Display aspect ratio : 2.40:1
    Frame rate mode : Constant
    Frame rate : 24.000 fps
    Color space : YUV
    Chroma subsampling : 4:2:0
    Bit depth : 8 bits
    Scan type : Progressive
    Bits/(Pixel*Frame) : 0.230
    Source stream size : 5.90 GiB (91%)
    Writing library : x264 core 130 r2273 b3065e6
    Encoding settings : cabac=1 / ref=4 / deblock=1:-3:-2 / analyse=0x3:0x133 / me=umh / subme=10 / psy=1 / psy_rd=1.00:0.25 / mixed_ref=1 / me_range=32 / chroma_me=1 / trellis=2 / 8x8dct=1 / cqm=0 / deadzone=21,11 / fast_pskip=0 / chroma_qp_offset=-4 / threads=18 / lookahead_threads=4 / sliced_threads=0 / nr=0 / decimate=0 / interlaced=0 / bluray_compat=0 / constrained_intra=0 / bframes=16 / b_pyramid=2 / b_adapt=2 / b_bias=0 / direct=3 / weightb=1 / open_gop=0 / weightp=2 / keyint=240 / keyint_min=24 / scenecut=40 / intra_refresh=0 / rc_lookahead=60 / rc=2pass / mbtree=1 / bitrate=8500 / ratetol=1.0 / qcomp=0.60 / qpmin=0 / qpmax=69 / qpstep=4 / cplxblur=20.0 / qblur=0.5 / vbv_maxrate=25000 / vbv_bufsize=25000 / nal_hrd=none / ip_ratio=1.40 / aq=1:0.80
    Language : Russian
    Encoded date : UTC 2015-02-27 06:25:59
    Tagged date : UTC 2015-02-27 06:36:54
    Color primaries : BT.709
    Transfer characteristics : BT.709
    Matrix coefficients : BT.709
    Video #2
    ID : 5
    Format : JPEG
    Codec ID : jpeg
    Duration : 1h 39mn
    Bit rate mode : Variable
    Bit rate : 480 bps
    Width : 640 pixels
    Height : 267 pixels
    Display aspect ratio : 2.40:1
    Frame rate mode : Variable
    Frame rate : 0.002 fps
    Minimum frame rate : 0.001 fps
    Maximum frame rate : 0.024 fps
    Color space : YUV
    Chroma subsampling : 4:2:0
    Bit depth : 8 bits
    Compression mode : Lossy
    Bits/(Pixel*Frame) : 1.404
    Stream size : 264 KiB (0%)
    Language : Russian
    Encoded date : UTC 2015-02-27 06:37:09
    Tagged date : UTC 2015-02-27 06:37:09
    Audio #1
    ID : 2
    Format : AAC
    Format/Info : Advanced Audio Codec
    Format profile : LC
    Codec ID : 40
    Duration : 1h 39mn
    Bit rate mode : Variable
    Bit rate : 192 Kbps
    Maximum bit rate : 329 Kbps
    Channel(s) : 2 channels
    Channel positions : Front: L R
    Sampling rate : 48.0 KHz
    Compression mode : Lossy
    Stream size : 139 MiB (2%)
    Language : Russian
    Encoded date : UTC 2015-02-27 06:25:59
    Tagged date : UTC 2015-02-27 06:37:01
    Audio #2
    ID : 3
    Format : AC-3
    Format/Info : Audio Coding 3
    Mode extension : CM (complete main)
    Format settings, Endianness : Big
    Codec ID : ac-3
    Duration : 1h 39mn
    Bit rate mode : Constant
    Bit rate : 640 Kbps
    Channel(s) : 6 channels
    Channel positions : Front: L C R, Side: L R, LFE
    Sampling rate : 48.0 KHz
    Bit depth : 16 bits
    Compression mode : Lossy
    Stream size : 455 MiB (7%)
    Language : Russian
    Encoded date : UTC 2015-02-27 06:25:59
    Tagged date : UTC 2015-02-27 06:26:50
    Menu #1
    00:00:00.000 : 1
    00:00:41.000 : 2
    00:08:35.583 : 3
    00:23:31.875 : 4
    00:29:56.750 : 5
    00:44:46.083 : 6
    01:02:40.875 : 7
    01:12:17.667 : 8
    01:17:41.958 : 9
    Menu #2
    ID : 4
    Codec ID : text
    Duration : 1h 39mn
    Language : Russian
    Encoded date : UTC 2015-02-27 06:37:01
    Tagged date : UTC 2015-02-27 06:37:01
    Bit rate mode : CBR
    00:00:00.000 : 1
    00:00:41.000 : 2
    00:08:35.583 : 3
    00:23:31.875 : 4
    00:29:56.750 : 5
    00:44:46.083 : 6
    01:02:40.875 : 7
    01:12:17.667 : 8
    01:17:41.958 : 9

    x264 лог 480p Release

    HandBrakeCLI -i "/Майор/BDMV/STREAM/00003.m2ts" -t 1 -o Mayor.480p.rus.m4v -f mp4 -I -O -w 640 -l 354 --crop 138:140:0:0 --custom-anamorphic --modulus 2 --pixel-aspect 852:640 -e x264 -b 1800 -2 -a none -x cabac=0:ref=2:me=umh:bframes=0:weightp=0:subq=6:8x8dct=0:trellis=0:vbv-maxrate=5000:vbv-bufsize=5000 --verbose=1
    x264 [info]: frame I:1688  Avg QP:13.90  size: 23664  PSNR Mean Y:49.94 U:55.13 V:53.53 Avg:50.91 Global:50.46
    x264 [info]: frame P:141380 Avg QP:15.79  size:  9207  PSNR Mean Y:47.17 U:51.70 V:50.71 Avg:48.10 Global:47.55
    x264 [info]: mb I  I16..4: 19.0%  0.0% 81.0%
    x264 [info]: mb P  I16..4:  1.5%  0.0%  5.4%  P16..4: 41.2% 32.3% 11.7%  0.0%  0.0%    skip: 7.9%
    x264 [info]: coded y,uvDC,uvAC intra: 69.5% 73.2% 49.4% inter: 41.7% 23.1% 5.5%
    x264 [info]: i16 v,h,dc,p: 42% 14% 10% 34%
    x264 [info]: i4 v,h,dc,ddl,ddr,vr,hd,vl,hu: 42% 12% 15%  5%  6%  7%  5%  6%  3%
    x264 [info]: i8c dc,h,v,p: 52% 15% 27%  6%
    x264 [info]: ref P L0: 72.3% 27.7%
    x264 [info]: SSIM Mean Y:0.9885820 (19.424db)
    x264 [info]: PSNR Mean Y:47.204 U:51.740 V:50.745 Avg:48.138 Global:47.579 kb/s:1800.44

    x264 лог 720p Release

    HandBrakeCLI -i "/Майор/BDMV/STREAM/00003.m2ts" -t 1 -o Mayor.720p.rus.m4v -f mp4 -4 -O -w 1280 -l 534 --crop 138:140:0:0 --modulus 2 -e x264 -b 5000 -2 -a none -x cabac=0:ref=3:me=umh:b-pyramid=none:b-adapt=2:weightb=0:trellis=0:weightp=0:vbv-maxrate=9500:vbv-bufsize=9500:subq=9:merange=32:deblock=-3,-2:qcomp=0.60:qpmin=0:qpmax=69:fast_pskip=0:aq-strength=0.8:no-dct-decimate=1:psy-rd=1.00,0.25 --verbose=1
    x264 [info]: frame I:839   Avg QP:12.72  size: 93002  PSNR Mean Y:51.10 U:55.24 V:54.48 Avg:52.00 Global:51.40
    x264 [info]: frame P:49068 Avg QP:15.09  size: 43052  PSNR Mean Y:48.66 U:53.44 V:52.48 Avg:49.65 Global:49.01
    x264 [info]: frame B:93161 Avg QP:16.89  size: 16478  PSNR Mean Y:47.19 U:52.89 V:51.77 Avg:48.28 Global:47.49
    x264 [info]: consecutive B-frames:  2.2% 18.9% 42.3% 36.6%
    x264 [info]: mb I  I16..4:  8.9% 60.7% 30.4%
    x264 [info]: mb P  I16..4:  2.9% 16.0%  5.3%  P16..4: 34.5% 27.2%  9.8%  0.0%  0.0%    skip: 4.2%
    x264 [info]: mb B  I16..4:  0.6%  2.8%  0.7%  B16..8: 43.0% 19.0%  2.8%  direct:10.2%  skip:20.9%  L0:42.2% L1:45.9% BI:11.9%
    x264 [info]: 8x8 transform intra:66.1% inter:44.4%
    x264 [info]: coded y,uvDC,uvAC intra: 80.8% 69.0% 45.8% inter: 39.2% 24.8% 11.1%
    x264 [info]: i16 v,h,dc,p: 37% 18%  8% 38%
    x264 [info]: i8 v,h,dc,ddl,ddr,vr,hd,vl,hu: 14%  9% 11%  9% 12% 12% 12% 10% 10%
    x264 [info]: i4 v,h,dc,ddl,ddr,vr,hd,vl,hu: 14% 10%  9% 10% 14% 13% 12%  9%  8%
    x264 [info]: i8c dc,h,v,p: 55% 18% 19%  8%
    x264 [info]: ref P L0: 67.6% 19.6% 12.8%
    x264 [info]: ref B L0: 79.8% 20.2%
    x264 [info]: SSIM Mean Y:0.9864789 (18.690db)
    x264 [info]: PSNR Mean Y:47.721 U:53.095 V:52.031 Avg:48.772 Global:47.973 kb/s:4999.75

    x264 лог 1080p Release

    HandBrakeCLI -i "/Майор/BDMV/STREAM/00003.m2ts" -t 1 -o Mayor.1080p.rus.m4v -f mp4 -4 -O -w 1920 -l 802 --crop 138:140:0:0 --modulus 2 -e x264 -b 8500 -2 -a none -x ref=4:bframes=16:b-adapt=2:direct=auto:me=umh:merange=32:subq=10:rc-lookahead=60:analyse=all:trellis=2:deblock=-3,-2:qcomp=0.60:qpmin=0:qpmax=69:fast_pskip=0:aq-strength=0.8:no-dct-decimate=1:psy-rd=1.00,0.25:vbv-maxrate=25000:vbv-bufsize=25000:level=4.0 --verbose=1
    x264 [info]: frame I:718   Avg QP:15.08  size:138279  PSNR Mean Y:50.61 U:56.56 V:55.65 Avg:51.77 Global:51.08
    x264 [info]: frame P:32031 Avg QP:17.75  size: 68837  PSNR Mean Y:48.72 U:54.96 V:53.83 Avg:49.90 Global:49.34
    x264 [info]: frame B:110319 Avg QP:18.96  size: 36523  PSNR Mean Y:47.17 U:53.95 V:52.81 Avg:48.40 Global:47.57
    x264 [info]: consecutive B-frames:  2.9%  4.4%  8.4% 14.8% 14.0% 40.4%  7.3%  1.0%  2.1%  0.4%  0.5%  2.5%  0.3%  0.1%  0.2%  0.1%  0.6%
    x264 [info]: mb I  I16..4: 22.1% 64.0% 13.9%
    x264 [info]: mb P  I16..4:  9.1% 37.4%  3.0%  P16..4: 27.8% 11.1%  6.0%  0.4%  0.2%    skip: 5.0%
    x264 [info]: mb B  I16..4:  2.4%  7.3%  0.4%  B16..8: 35.8% 13.2%  2.6%  direct:16.6%  skip:21.7%  L0:44.9% L1:41.5% BI:13.6%
    x264 [info]: 8x8 transform intra:73.9% inter:60.9%
    x264 [info]: direct mvs  spatial:99.7% temporal:0.3%
    x264 [info]: coded y,uvDC,uvAC intra: 72.2% 62.8% 25.7% inter: 42.1% 37.6% 6.3%
    x264 [info]: i16 v,h,dc,p: 33% 20% 19% 29%
    x264 [info]: i8 v,h,dc,ddl,ddr,vr,hd,vl,hu: 18% 14% 20%  7%  7%  9%  8%  9%  9%
    x264 [info]: i4 v,h,dc,ddl,ddr,vr,hd,vl,hu: 25% 15% 14%  6%  8%  9%  8%  7%  6%
    x264 [info]: i8c dc,h,v,p: 48% 24% 20%  7%
    x264 [info]: Weighted P-Frames: Y:1.3% UV:0.6%
    x264 [info]: ref P L0: 56.0%  5.5% 24.1% 12.9%  1.5%  0.0%
    x264 [info]: ref B L0: 83.3% 13.7%  3.0%
    x264 [info]: ref B L1: 89.6% 10.4%
    x264 [info]: SSIM Mean Y:0.9850180 (18.244db)
    x264 [info]: PSNR Mean Y:47.539 U:54.193 V:53.051 Avg:48.752 Global:47.922 kb/s:8499.40

    Скриншоты 480p Release

    Скриншоты 720p Release

    Скриншоты 1080p Release

    -

    Релиз подготовлен для просмотра на Apple TV, iPad, iPhone, iPod Touch.
    Для просмотра данного релиза на компьютере с ОС Windows рекомендуется использовать VLC media player
    Скачать .torrent

    Скачать торрент-файл бесплатно и на максимальной скорости!

    Как скачивать? · Что такое торрент? · Рейтинг и ограничения

    !ВНИМАНИЕ!
    Сайт не распространяет и не хранит электронные версии произведений, а занимается лишь лишь предоставлением доступа к создаваемому пользователями каталогу ссылок на торрент-файлы, которые содержат только списки хеш-сумм, убедительная просьба с жалобами обращаться напрямую к пользователю. Файлы для обмена на трекере предоставлены пользователями сайта, и администрация не несёт ответственности за их содержание. Просьба не заливать файлы, защищенные авторскими правами, а также файлы нелегального содержания!


  • _________________
    [Профиль] [ЛС]
    Показать сообщения:    
    Ответить на тему

    Текущее время: Сегодня, в 09:52

    Часовой пояс: GMT + 2



    Вы не можете начинать темы
    Вы не можете отвечать на сообщения
    Вы не можете редактировать свои сообщения
    Вы не можете удалять свои сообщения
    Вы не можете голосовать в опросах
    Вы не можете прикреплять файлы к сообщениям
    Вы не можете скачивать файлы