BitTorrentTracker PerecTracker.org
BitTorrentTracker PerecTracker.org
    
Регистрация  ·  Вход
 
 · 
Забыли пароль?

  • Помогите! Я рыба / Help! I\'m a Fish / A Fish Tale / Hjælp! Jeg er en fisk (Стефан Фьелдмарк / Stefan Fjeldmark, Майкл Хэгнер / Michael Hegner, Грег Манваринг / Greg Manwaring) [2000, фантастика, комедия, приключения, DVDRip-AVC] VO (Пётр Гланц)

    Ответить на тему
     
    Автор Сообщение

    rechyn

    Создавать темы 13-Мар-2015 22:55

           

    [Цитировать]

    Помогите! Я рыба / Help! I'm a Fish / A Fish Tale / Hjælp! Jeg er en fisk
    Страна: Германия, Ирландия, Дания
    Жанр: фантастика, комедия, приключения
    Продолжительность: 01:16:57
    Год выпуска: 2000
    Перевод: Одноголосый закадровый Пётр Гланц
    Русские субтитры: нет
    Режиссёр: Стефан Фьелдмарк / Stefan Fjeldmark, Майкл Хэгнер / Michael Hegner, Грег Манваринг / Greg Manwaring
    Описание: В мистической лаборатории профессора МакКриллса маленькая Стелла случайно выпивает эликсир, превращающий ее в морскую звезду. Фли и Чак принимают решение самим стать рыбами и искать ее в океане.
    Возникает одна проблема — у них есть только 48 часов, чтобы найти Стеллу и принять противоядие, или они навсегда останутся рыбами.
    Семпл: http://multi-up.com/1024893
    Качество: DVDRip-AVC Исходник
    Формат: MKV
    Видео: 704x398 (16:9), 25.000 fps, AVC, ~978 Kbps, 0.140 bits/pixel
    Аудио: Russian, 48.0 KHz, AC3, 6 ch, 384 Kbps - Пётр Гланц
    Субтитры: отсутствуют

    Log

    avs4x264.exe: -L x264_64.exe --pass 2 --bitrate 978 --preset medium --ref 10 --deblock -1:-1 --merange 32 --bframes 10 --direct auto --b-adapt 2 --trellis 2 --no-fast-pskip --psy-rd 1.00:0.10 --partitions all --subme 10 --me umh --rc-lookahead 50 --sar 1:1 --stats "C:\Temp\0067.log" --output "C:\Temp\0067.264" "C:\Temp\0067.avs"
    raw [info]: 704x398p 1:1 @ 25/1 fps (cfr)
    x264 [info]: using SAR=1/1
    x264 [info]: using cpu capabilities: MMX2 SSE2Fast LZCNT
    x264 [info]: profile High, level 3.1
    x264 [info]: frame I:907 Avg QP:15.46 size: 40122
    x264 [info]: frame P:27791 Avg QP:18.30 size: 11141
    x264 [info]: frame B:86741 Avg QP:21.63 size: 2520
    x264 [info]: consecutive B-frames: 2.3% 2.6% 14.8% 31.0% 19.6% 23.7% 2.6% 1.1% 0.7% 0.9% 0.8%
    x264 [info]: mb I I16..4: 6.5% 70.9% 22.6%
    x264 [info]: mb P I16..4: 1.5% 6.3% 1.4% P16..4: 45.0% 21.2% 18.1% 0.8% 0.3% skip: 5.5%
    x264 [info]: mb B I16..4: 0.1% 0.5% 0.1% B16..8: 36.9% 7.7% 2.1% direct: 3.7% skip:48.9% L0:42.1% L1:50.1% BI: 7.8%
    x264 [info]: 8x8 transform intra:69.5% inter:61.9%
    x264 [info]: direct mvs spatial:93.6% temporal:6.4%
    x264 [info]: coded y,uvDC,uvAC intra: 80.1% 80.5% 61.6% inter: 15.7% 17.6% 5.2%
    x264 [info]: i16 v,h,dc,p: 25% 28% 11% 35%
    x264 [info]: i8 v,h,dc,ddl,ddr,vr,hd,vl,hu: 10% 10% 7% 10% 13% 12% 13% 12% 14%
    x264 [info]: i4 v,h,dc,ddl,ddr,vr,hd,vl,hu: 11% 10% 4% 10% 15% 14% 13% 12% 12%
    x264 [info]: i8c dc,h,v,p: 40% 28% 19% 13%
    x264 [info]: Weighted P-Frames: Y:8.3% UV:3.5%
    x264 [info]: ref P L0: 44.2% 8.5% 19.5% 6.4% 5.8% 4.2% 4.2% 2.2% 2.2% 2.1% 0.7% 0.0%
    x264 [info]: ref B L0: 70.9% 13.6% 5.8% 2.9% 2.2% 1.9% 1.6% 0.7% 0.4%
    x264 [info]: ref B L1: 91.6% 8.4%
    x264 [info]: kb/s:978.13
    x264 [total]: encoded 115439 frames, 20.50 fps, 978.13 kb/s

    Подробные технические данные

    GeneralUnique ID : 212980442305621803603889288905438481930 (0xA03A8A882F73036AB504B75B4CC74E0A)Complete name : C:\Help! I'm a Fish.mkvFormat : MatroskaFormat version : Version 4 / Version 2File size : 751 MiBDuration : 1h 16mnOverall bit rate : 1 364 KbpsEncoded date : UTC 2015-01-06 17:39:05Writing application : mkvmerge v7.5.0 ('Glass Culture') 64bit built on Jan 4 2015 16:48:44Writing library : libebml v1.3.1 + libmatroska v1.4.2DURATION : 01:16:57.536000000NUMBER_OF_FRAMES : 144298NUMBER_OF_BYTES : 221641728_STATISTICS_WRITING_APP : mkvmerge v7.5.0 ('Glass Culture') 64bit built on Jan 4 2015 16:48:44_STATISTICS_WRITING_DATE_UT : 2015-01-06 17:39:05_STATISTICS_TAGS : BPS DURATION NUMBER_OF_FRAMES NUMBER_OF_BYTES
    VideoID : 1Format : AVCFormat/Info : Advanced Video CodecFormat profile : High@L3.1Format settings, CABAC : YesFormat settings, ReFrames : 10 framesCodec ID : V_MPEG4/ISO/AVCDuration : 1h 16mnBit rate : 978 KbpsWidth : 704 pixelsHeight : 398 pixelsDisplay aspect ratio : 16:9Frame rate mode : ConstantFrame rate : 25.000 fpsColor space : YUVChroma subsampling : 4:2:0Bit depth : 8 bitsScan type : ProgressiveBits/(Pixel*Frame) : 0.140Stream size : 524 MiB (70%)Writing library : x264 core 142 r2479 dd79a61Encoding settings : cabac=1 / ref=10 / deblock=1:-1:-1 / analyse=0x3:0x133 / me=umh / subme=10 / psy=1 / psy_rd=1.00:0.10 / mixed_ref=1 / me_range=32 / chroma_me=1 / trellis=2 / 8x8dct=1 / cqm=0 / deadzone=21,11 / fast_pskip=0 / chroma_qp_offset=-3 / threads=6 / lookahead_threads=1 / sliced_threads=0 / nr=0 / decimate=1 / interlaced=0 / bluray_compat=0 / constrained_intra=0 / bframes=10 / b_pyramid=2 / b_adapt=2 / b_bias=0 / direct=3 / weightb=1 / open_gop=0 / weightp=2 / keyint=250 / keyint_min=25 / scenecut=40 / intra_refresh=0 / rc_lookahead=50 / rc=2pass / mbtree=1 / bitrate=978 / ratetol=1.0 / qcomp=0.60 / qpmin=0 / qpmax=69 / qpstep=4 / cplxblur=20.0 / qblur=0.5 / ip_ratio=1.40 / aq=1:1.00Default : YesForced : No
    AudioID : 2Format : AC-3Format/Info : Audio Coding 3Mode extension : CM (complete main)Format settings, Endianness : BigCodec ID : A_AC3Duration : 1h 16mnBit rate mode : ConstantBit rate : 384 KbpsChannel(s) : 6 channelsChannel positions : Front: L C R, Side: L R, LFESampling rate : 48.0 KHzBit depth : 16 bitsCompression mode : LossyStream size : 211 MiB (28%)Title : Пётр ГланцLanguage : RussianDefault : YesForced : No
    Menu00:00:00.000 : :Chapter 0100:00:32.160 : :Chapter 0200:02:56.280 : :Chapter 0300:05:20.760 : :Chapter 0400:08:45.480 : :Chapter 0500:10:32.400 : :Chapter 0600:15:23.160 : :Chapter 0700:17:57.480 : :Chapter 0800:20:27.480 : :Chapter 0900:21:45.720 : :Chapter 1000:26:47.640 : :Chapter 1100:30:06.720 : :Chapter 1200:34:38.040 : :Chapter 1300:37:43.560 : :Chapter 1400:40:16.920 : :Chapter 1500:42:23.760 : :Chapter 1600:43:38.040 : :Chapter 1700:45:46.800 : :Chapter 1800:53:29.040 : :Chapter 1900:56:58.680 : :Chapter 2001:02:51.840 : :Chapter 2101:07:26.880 : :Chapter 2201:09:35.520 : :Chapter 23

    Скриншоты

    Скачать .torrent

    Скачать торрент-файл бесплатно и на максимальной скорости!

    Как скачивать? · Что такое торрент? · Рейтинг и ограничения

    !ВНИМАНИЕ!
    Сайт не распространяет и не хранит электронные версии произведений, а занимается лишь лишь предоставлением доступа к создаваемому пользователями каталогу ссылок на торрент-файлы, которые содержат только списки хеш-сумм, убедительная просьба с жалобами обращаться напрямую к пользователю. Файлы для обмена на трекере предоставлены пользователями сайта, и администрация не несёт ответственности за их содержание. Просьба не заливать файлы, защищенные авторскими правами, а также файлы нелегального содержания!


    _________________
    [Профиль] [ЛС]
    Показать сообщения:    
    Ответить на тему

    Текущее время: Сегодня, в 13:43

    Часовой пояс: GMT + 2



    Вы не можете начинать темы
    Вы не можете отвечать на сообщения
    Вы не можете редактировать свои сообщения
    Вы не можете удалять свои сообщения
    Вы не можете голосовать в опросах
    Вы не можете прикреплять файлы к сообщениям
    Вы не можете скачивать файлы