BitTorrentTracker PerecTracker.org
BitTorrentTracker PerecTracker.org
    
Регистрация  ·  Вход
 
 · 
Забыли пароль?

  • Каспер. Рождество призраков / Каспер. Незабываемое Рождество / Casper\'s Haunted Christmas (Оуэн Хёрли / Owen Hurley) [2000, семейный, DVDRip-AVC] MVO (DVD-Group) + Dub (1 канал) + MVO (Союз) + AVO (Живов, Гранкин) + Original Eng + rus sub

    Ответить на тему
     
    Автор Сообщение

    rechyn

    Создавать темы 13-Мар-2015 22:55

           

    [Цитировать]

    Каспер. Рождество призраков / Каспер. Незабываемое Рождество / Casper's Haunted Christmas-Страна: США
    Жанр: семейный, мультфильм
    Продолжительность: 01:19:59
    Год выпуска: 2000
    Перевод 1: Профессиональный (многоголосый закадровый) - DVD-Group
    Перевод 2: Профессиональный (дублированный) - По заказу Первого канала
    Перевод 3: Профессиональный (многоголосый закадровый) - "Союз" VHS
    Перевод 4: Авторский (одноголосый закадровый) - Юрий Живов
    Перевод 5: Авторский (одноголосый закадровый) - Евгений Гранкин
    Перевод 6: Одноголосый закадровый - неизвестный
    Русские субтитры: есть-Режиссёр: Оуэн Хёрли / Owen Hurley
    Роли озвучивали: Брендон Райан Баррет, Кэтлин Барр, Йен Джеймс Корлетт, Дэвид Кэй, Грэм Кингстон, Терри Классен, Скотт МакНил, Теган Мосс, Колин Мёрдок, Табита Сен-Жермен...- | Релиз: -Описание: Повсюду слышен волшебный звон колокольчиков и веселое пение детей. У дружелюбного привидения Каспера отличное настроение! Но предводитель всех призраков Кибош приказывает ему напугать хотя бы одного человека перед Рождеством.
    В противном случае Каспер и трое его дядюшек-призраков - Длинный,Толстяк и Вонючка - будут строго наказаны. Добрый Каспер безуспешно пытается справиться с данным ему поручением. Как нашим героям избежать наказания и никому не испортить праздничного настроения? Фантастическая компьютерная анимация, увлекательные приключения и великолепные песни делают этот новый полнометражный мультфильм лучшим подарком к самому веселому празднику года!-Доп. информация:
    - За исходную оцифровку звука с VHS "Союз" спасибо alenavova.
    - За переводы Юрия Живова, Евгения Гранкина и неизвестного спасибо multmir.
    - Запись дубляжа с канала "Карусель", работа со звуком и видео - xfiles.
    Примечание: В эфире канала "Карусель" фильм имел несколько купюр, видимо, связанных с цензурой. Были вырезаны фрагменты: 00:05:35-00:05:39; 00:14:52-00:14:59; 00:27:41-00:27:42; 00:34:52-00:34:56. В данной раздаче эти фрагменты подставлены из перевода "DVD-Group". Также в дубляже финальная песня была без вокала. В данной раздаче это безобразие исправлено - вокал на месте.-Семпл: http://sendfile.su/1071292-Качество: DVDRip-AVC
    Формат: MKV
    Видео: 700x576 (16:9) @ 996x576, 25.000 fps, AVC, ~1615 kbps, 0.155 bits/pixel
    Аудио 1: Русский, 48.0 KHz, AC3, 6 ch, 448 Kbps - Многоголосый закадровый | DVD-Group
    Аудио 2: Русский, 48.0 KHz, AC3, 2 ch, 192 Kbps - Дубляж | По заказу Первого канала
    Аудио 3: Русский, 48.0 KHz, AC3, 1 ch, 192 Kbps - Многоголосый закадровый | "Союз" VHS
    Аудио 4: English, 48.0 KHz, AC3, 6 ch, 448 Kbps - Original
    Аудио 5: Русский, 48.0 KHz, AC3, 6 ch, 448 Kbps - Одноголосый закадровый | Юрий Живов
    Аудио 6: Русский, 48.0 KHz, AC3, 6 ch, 448 Kbps - Одноголосый закадровый | Евгений Гранкин
    Аудио 7: Русский, 48.0 KHz, AC3, 6 ch, 448 Kbps - Одноголосый закадровый | Неизвестный
    Субтитры: русские
    Подробные технические данные

    x264 log

    x264 [info]: 700x576p 64:45 @ 25/1 fps (cfr)x264 [info]: using SAR=64/45x264 [info]: using cpu capabilities: MMX2 SSE2Fast SSSE3 SSE4.2 AVXx264 [info]: profile High, level 4.0x264 [info]: cabac=1 ref=16 deblock=1:-1:-1 analyse=0x3:0x133 me=umh subme=11 psy=1 fade_compensate=0.00 psy_rd=0.60:0.00 mixed_ref=1 me_range=48 chroma_me=1 trellis=2 8x8dct=1 cqm=0 deadzone=21,11 fast_pskip=0 chroma_qp_offset=-2 threads=12 lookahead_threads=3 sliced_threads=0 nr=0 decimate=1 interlaced=0 bluray_compat=0 constrained_intra=0 fgo=0 bframes=14 b_pyramid=2 b_adapt=2 b_bias=0 direct=3 weightb=1 open_gop=0 weightp=2 keyint=250 keyint_min=25 scenecut=40 intra_refresh=0 rc=crf mbtree=0 crf=17.0000 qcomp=0.60 qpmin=0 qpmax=69 qpstep=4 ip_ratio=1.40 pb_ratio=1.30 aq=1:1.00x264 [info]: frame I:948 Avg QP:15.20 size: 51865x264 [info]: frame P:24526 Avg QP:16.30 size: 18112x264 [info]: frame B:94501 Avg QP:18.72 size: 5034x264 [info]: consecutive B-frames: 2.0% 1.9% 9.4% 9.4% 6.9% 63.9% 1.9% 0.8% 0.8% 0.2% 0.2% 1.2% 0.1% 0.5% 0.7%x264 [info]: mb I I16..4: 5.6% 71.9% 22.5%x264 [info]: mb P I16..4: 1.2% 14.5% 2.0% P16..4: 26.5% 27.8% 12.1% 1.7% 0.2% skip:14.0%x264 [info]: mb B I16..4: 0.2% 1.7% 0.2% B16..8: 24.4% 16.7% 3.3% direct: 4.7% skip:48.7% L0:42.6% L1:44.3% BI:13.1%x264 [info]: 8x8 transform intra:79.9% inter:58.2%x264 [info]: direct mvs spatial:100.0% temporal:0.0%x264 [info]: coded y,uvDC,uvAC intra: 88.0% 86.3% 70.7% inter: 17.3% 16.8% 3.6%x264 [info]: i16 v,h,dc,p: 23% 8% 6% 63%x264 [info]: i8 v,h,dc,ddl,ddr,vr,hd,vl,hu: 14% 8% 13% 8% 11% 12% 10% 12% 12%x264 [info]: i4 v,h,dc,ddl,ddr,vr,hd,vl,hu: 17% 10% 6% 8% 13% 14% 11% 10% 10%x264 [info]: i8c dc,h,v,p: 32% 27% 22% 19%x264 [info]: Weighted P-Frames: Y:5.8% UV:4.3%x264 [info]: ref P L0: 44.4% 7.0% 18.6% 5.7% 5.3% 3.5% 3.6% 1.7% 1.9% 1.4% 1.5% 1.2% 1.3% 1.0% 1.1% 0.7%x264 [info]: ref B L0: 64.5% 12.3% 6.1% 3.6% 2.6% 2.4% 1.9% 1.3% 1.1% 1.1% 0.9% 0.9% 0.7% 0.5% 0.2%x264 [info]: ref B L1: 92.0% 8.0%x264 [info]: kb/s:1615.56x264 [info]: encoded 119975 frames, 14.85 fps, 1615.56 kb/s, duration 2:14:39.51
    GeneralUnique ID : 208878034718482949901997938065345601177 (0x9D247238C7EB4EDE90A22CD4D0D7DE99)Complete name : Casper's.Haunted.Christmas.2000.DVDRip.x264-rutracker.xfiles.mkvFormat : MatroskaFormat version : Version 4 / Version 2File size : 2.37 GiBDuration : 1h 19mnOverall bit rate : 4 237 KbpsMovie name : Casper's.Haunted.Christmas.2000.DVDRip.x264-rutracker.xfilesEncoded date : UTC 2015-01-09 09:41:15Writing application : mkvmerge v7.5.0 ('Glass Culture') 64bit built on Jan 4 2015 16:48:44Writing library : libebml v1.3.1 + libmatroska v1.4.2Attachements : x264.txt / poster.jpg
    VideoID : 1Format : AVCFormat/Info : Advanced Video CodecFormat profile : High@L4.0Format settings, CABAC : YesFormat settings, ReFrames : 16 framesCodec ID : V_MPEG4/ISO/AVCDuration : 1h 19mnBit rate : 1 528 KbpsWidth : 700 pixelsHeight : 576 pixelsDisplay aspect ratio : 1.729Original display aspect ratio : 1.728Frame rate mode : ConstantFrame rate : 25.000 fpsColor space : YUVChroma subsampling : 4:2:0Bit depth : 8 bitsScan type : ProgressiveBits/(Pixel*Frame) : 0.152Stream size : 874 MiB (36%)Title : http://perectracker.org/viewtopic.php?t=4904136Writing library : x264 core 144 r2525kMod 40bb568Encoding settings : cabac=1 / ref=16 / deblock=1:-1:-1 / analyse=0x3:0x133 / me=umh / subme=11 / psy=1 / fade_compensate=0.00 / psy_rd=0.60:0.00 / mixed_ref=1 / me_range=48 / chroma_me=1 / trellis=2 / 8x8dct=1 / cqm=0 / deadzone=21,11 / fast_pskip=0 / chroma_qp_offset=-2 / threads=12 / lookahead_threads=3 / sliced_threads=0 / nr=0 / decimate=1 / interlaced=0 / bluray_compat=0 / constrained_intra=0 / fgo=0 / bframes=14 / b_pyramid=2 / b_adapt=2 / b_bias=0 / direct=3 / weightb=1 / open_gop=0 / weightp=2 / keyint=250 / keyint_min=25 / scenecut=40 / intra_refresh=0 / rc=crf / mbtree=0 / crf=17.0000 / qcomp=0.60 / qpmin=0 / qpmax=69 / qpstep=4 / ip_ratio=1.40 / pb_ratio=1.30 / aq=1:1.00Language : EnglishDefault : YesForced : NoColor primaries : BT.601 PALTransfer characteristics : BT.470 System B, BT.470 System GMatrix coefficients : BT.601Color range : Limited
    Audio #1ID : 2Format : AC-3Format/Info : Audio Coding 3Mode extension : CM (complete main)Format settings, Endianness : BigCodec ID : A_AC3Duration : 1h 19mnBit rate mode : ConstantBit rate : 448 KbpsChannel(s) : 6 channelsChannel positions : Front: L C R, Side: L R, LFESampling rate : 48.0 KHzBit depth : 16 bitsCompression mode : LossyStream size : 256 MiB (11%)Title : Многоголосый закадровый | DVD-GroupLanguage : RussianDefault : YesForced : No
    Audio #2ID : 3Format : AC-3Format/Info : Audio Coding 3Mode extension : CM (complete main)Format settings, Endianness : BigCodec ID : A_AC3Duration : 1h 19mnBit rate mode : ConstantBit rate : 192 KbpsChannel(s) : 2 channelsChannel positions : Front: L RSampling rate : 48.0 KHzBit depth : 16 bitsCompression mode : LossyStream size : 110 MiB (5%)Title : Дубляж | По заказу Первого каналаLanguage : RussianDefault : NoForced : No
    Audio #3ID : 4Format : AC-3Format/Info : Audio Coding 3Mode extension : CM (complete main)Format settings, Endianness : BigCodec ID : A_AC3Duration : 1h 19mnBit rate mode : ConstantBit rate : 192 KbpsChannel(s) : 1 channelChannel positions : Front: CSampling rate : 48.0 KHzBit depth : 16 bitsCompression mode : LossyStream size : 110 MiB (5%)Title : Многоголосый закадровый | "Союз" VHSLanguage : RussianDefault : NoForced : No
    Audio #4ID : 5Format : AC-3Format/Info : Audio Coding 3Mode extension : CM (complete main)Format settings, Endianness : BigCodec ID : A_AC3Duration : 1h 19mnBit rate mode : ConstantBit rate : 448 KbpsChannel(s) : 6 channelsChannel positions : Front: L C R, Side: L R, LFESampling rate : 48.0 KHzBit depth : 16 bitsCompression mode : LossyStream size : 256 MiB (11%)Title : OriginalLanguage : EnglishDefault : NoForced : No
    Audio #5ID : 6Format : AC-3Format/Info : Audio Coding 3Mode extension : CM (complete main)Format settings, Endianness : BigCodec ID : A_AC3Duration : 1h 19mnBit rate mode : ConstantBit rate : 448 KbpsChannel(s) : 6 channelsChannel positions : Front: L C R, Side: L R, LFESampling rate : 48.0 KHzBit depth : 16 bitsCompression mode : LossyStream size : 256 MiB (11%)Title : Одноголосый закадровый | Юрий ЖивовLanguage : RussianDefault : NoForced : No
    Audio #6ID : 7Format : AC-3Format/Info : Audio Coding 3Mode extension : CM (complete main)Format settings, Endianness : BigCodec ID : A_AC3Duration : 1h 19mnBit rate mode : ConstantBit rate : 448 KbpsChannel(s) : 6 channelsChannel positions : Front: L C R, Side: L R, LFESampling rate : 48.0 KHzBit depth : 16 bitsCompression mode : LossyStream size : 256 MiB (11%)Title : Одноголосый закадровый | Евгений ГранкинLanguage : RussianDefault : NoForced : No
    Audio #7ID : 8Format : AC-3Format/Info : Audio Coding 3Mode extension : CM (complete main)Format settings, Endianness : BigCodec ID : A_AC3Duration : 1h 19mnBit rate mode : ConstantBit rate : 448 KbpsChannel(s) : 6 channelsChannel positions : Front: L C R, Side: L R, LFESampling rate : 48.0 KHzBit depth : 16 bitsCompression mode : LossyStream size : 256 MiB (11%)Title : Одноголосый закадровый | НеизвестныйLanguage : RussianDefault : NoForced : No
    TextID : 9Format : UTF-8Codec ID : S_TEXT/UTF8Codec ID/Info : UTF-8 Plain TextLanguage : RussianDefault : NoForced : No
    Menu00:00:00.000 : ru:01. Вступительные титры00:04:46.800 : ru:02. Нарушители00:07:17.400 : ru:03. Свисток Кабоша00:09:51.000 : ru:04. Кромешная тьма00:11:53.400 : ru:05. Ссылка00:13:07.200 : ru:06. Говорящий снеговик00:18:17.400 : ru:07. Репетиция00:22:46.800 : ru:08. Обед00:26:28.800 : ru:09. Сообщение00:28:30.600 : ru:10. Испуг не засчитывается00:32:22.800 : ru:11. Предложение00:37:07.200 : ru:12. Новый Каспер00:48:03.000 : ru:13. Признание00:53:31.800 : ru:14. Похищение00:59:12.000 : ru:15. "Я вернулся!"01:03:53.400 : ru:16. Время вышло01:08:09.600 : ru:17. Подарок на Рождество01:11:06.600 : ru:18. Сюрприз01:13:09.600 : ru:19. Настоящий друг01:16:21.000 : ru:20. Заключительные титры

    Скриншоты

    Скачать .torrent

    Скачать торрент-файл бесплатно и на максимальной скорости!

    Как скачивать? · Что такое торрент? · Рейтинг и ограничения

    !ВНИМАНИЕ!
    Сайт не распространяет и не хранит электронные версии произведений, а занимается лишь лишь предоставлением доступа к создаваемому пользователями каталогу ссылок на торрент-файлы, которые содержат только списки хеш-сумм, убедительная просьба с жалобами обращаться напрямую к пользователю. Файлы для обмена на трекере предоставлены пользователями сайта, и администрация не несёт ответственности за их содержание. Просьба не заливать файлы, защищенные авторскими правами, а также файлы нелегального содержания!


    _________________
    [Профиль] [ЛС]
    Показать сообщения:    
    Ответить на тему

    Текущее время: Сегодня, в 00:36

    Часовой пояс: GMT + 2



    Вы не можете начинать темы
    Вы не можете отвечать на сообщения
    Вы не можете редактировать свои сообщения
    Вы не можете удалять свои сообщения
    Вы не можете голосовать в опросах
    Вы не можете прикреплять файлы к сообщениям
    Вы не можете скачивать файлы