BitTorrentTracker PerecTracker.org
BitTorrentTracker PerecTracker.org
    
Регистрация  ·  Вход
 
 · 
Забыли пароль?

  • Ослиная шкура / Peau d\'âne (Клод Али / Claude Allix, Владимир Гонтчаров / Vladimir Gontcharov) [1997, сказка, семейный, экранизация, TVRip] MVO (Пифагор)

    Ответить на тему
     
    Автор Сообщение

    rechyn

    Создавать темы 13-Мар-2015 22:55

           

    [Цитировать]

    Ослиная шкура / Peau d'âne
    Страна: Франция
    Жанр: сказка, семейный, экранизация
    Продолжительность: 00:50:23
    Год выпуска: 1997
    Перевод: Профессиональный (многоголосый закадровый) - студия "Пифагор" по заказу ГТРК "Культура"
    Русские субтитры: нет
    Режиссёр: Клод Али / Claude Allix, Владимир Гонтчаров / Vladimir Gontcharov
    Роли озвучивали: Жак Альбаре, Кристин Орель, Патрик Бетьюн, Мишель Кленси
    Описание: По мотивам одноименной сказки Шарля Перро. Давным-давно королевством Азури правил добрый и справедливый Король. Больше всех на свете он любил свою жену и дочь — принцессу Ариану. Их королевство процветало, и все были счастливы. Но однажды, Королеву сразил жестокий недуг, и безутешный Король поклялся, что женится вновь только в том случае, если новая избранница будет еще прекраснее его любимой покойной супруги. Колдовские чары кузины Короля затуманили его разум и выбор придирчивого Короля пал на его собственную дочь-принцессу. Бедной Ариане пришлось бежать из родного дома, спрятавшись под шкурой волшебного осла...
    Доп. информация: Рип smit009 (запись 2008 года с ТВ).
    Семпл: http://multi-up.com/1026114
    Качество: TVRip
    Формат: AVI
    Видео: XviD build 73, 688x528 (4:3), 25.00 fps, 1279 kbps avg
    Аудио: Русский, MPEG Layer 3, 44 kHz, 2 ch, 128.00 kbps avg
    Субтитры: отсутствуют

    Подробные технические данные

    GeneralComplete name : D:\Peau Dan_1966\Peau Dan_1997.TVRip.Pifagor.aviFormat : AVIFormat/Info : Audio Video InterleaveFile size : 511 MiBDuration : 50mn 22sOverall bit rate : 1 417 KbpsWriting application : VirtualDubMod 1.5.10.3 | www.virtualdub-fr.org || (build 2550/release)Writing library : VirtualDubMod build 2550/release
    VideoID : 0Format : MPEG-4 VisualFormat profile : Advanced Simple@L5Format settings, BVOP : 2Format settings, QPel : NoFormat settings, GMC : No warppointsFormat settings, Matrix : Default (H.263)Codec ID : XVIDCodec ID/Hint : XviDDuration : 50mn 22sBit rate : 1 279 KbpsWidth : 688 pixelsHeight : 528 pixelsDisplay aspect ratio : 4:3Frame rate : 25.000 fpsColor space : YUVChroma subsampling : 4:2:0Bit depth : 8 bitsScan type : ProgressiveCompression mode : LossyBits/(Pixel*Frame) : 0.141Stream size : 461 MiB (90%)Writing library : XviD 73
    AudioID : 1Format : MPEG AudioFormat version : Version 1Format profile : Layer 3Codec ID : 55Codec ID/Hint : MP3Duration : 50mn 22sBit rate mode : ConstantBit rate : 128 KbpsChannel(s) : 2 channelsSampling rate : 44.1 KHzCompression mode : LossyStream size : 46.1 MiB (9%)Alignment : Split accross interleavesInterleave, duration : 40 ms (1.00 video frame)Interleave, preload duratio : 500 msWriting library : LAME3.99rEncoding settings : -m s -V 4 -q 2 -lowpass 17 -b 128

    Скриншоты


    Скачать .torrent

    Скачать торрент-файл бесплатно и на максимальной скорости!

    Как скачивать? · Что такое торрент? · Рейтинг и ограничения

    !ВНИМАНИЕ!
    Сайт не распространяет и не хранит электронные версии произведений, а занимается лишь лишь предоставлением доступа к создаваемому пользователями каталогу ссылок на торрент-файлы, которые содержат только списки хеш-сумм, убедительная просьба с жалобами обращаться напрямую к пользователю. Файлы для обмена на трекере предоставлены пользователями сайта, и администрация не несёт ответственности за их содержание. Просьба не заливать файлы, защищенные авторскими правами, а также файлы нелегального содержания!


    _________________
    [Профиль] [ЛС]
    Показать сообщения:    
    Ответить на тему

    Текущее время: Сегодня, в 16:23

    Часовой пояс: GMT + 2



    Вы не можете начинать темы
    Вы не можете отвечать на сообщения
    Вы не можете редактировать свои сообщения
    Вы не можете удалять свои сообщения
    Вы не можете голосовать в опросах
    Вы не можете прикреплять файлы к сообщениям
    Вы не можете скачивать файлы