Register  ·  Log in
Forgot password?

  • Бамси и город воров / Bamse och tjuvstaden (Кристиан Рилтениус / Christian Ryltenius) [2014, Мультфильм, DVDRip] VO

    Reply to topic
    Author Message


    Post 13-Mar-2015 23:55



    Бамси и город воров / Bamse och tjuvstaden
    Страна: Швеция
    Жанр: Мультфильм
    Продолжительность: 1:02:51
    Год выпуска: 2014
    Перевод: Одноголосый закадровый
    Русские субтитры: нет
    Режиссёр: Кристиан Рилтениус / Christian Ryltenius
    Роли озвучивали: Peter Haber, Morgan Alling, Steve Kratz
    Описание: Бамси со своей семьёй и друзьями, живет в мирной деревне и готовится отметить день рождения Черепашкина. Но коварный план лиса Рейнарда, заставляет Бамси и его друзей пуститься в опасное путешествие
    Доп. информация: Переводил и озвучивал сам, так что не серчайте.
    Качество: DVDRip
    Формат: AVI
    Видео: 1 889 Kbps 720:404 pixels Frame rate : 25.000 fps Format : MPEG-4 Visual DivX 4
    Аудио: MP3 128 Kbps 44.1 KHz
    Субтитры: отсутствуют

    Подробные технические данные

    Format : AVIFormat/Info : Audio Video InterleaveFile size : 911 MiBDuration : 1h 2mnOverall bit rate : 2 027 KbpsWriting application : Lavf56.16.101Writing library : VirtualDub build 35491/release
    VideoID : 0Format : MPEG-4 VisualFormat profile : Advanced Simple@L1Format settings, BVOP : 3Format settings, QPel : NoFormat settings, GMC : No warppointsFormat settings, Matrix : Default (H.263)Codec ID : DIVXCodec ID/Info : Project MayoCodec ID/Hint : DivX 4Duration : 1h 2mnBit rate : 1 889 KbpsWidth : 720 pixelsHeight : 404 pixelsDisplay aspect ratio : 16:9Frame rate : 25.000 fpsColor space : YUVChroma subsampling : 4:2:0Bit depth : 8 bitsScan type : ProgressiveCompression mode : LossyBits/(Pixel*Frame) : 0.260Stream size : 850 MiB (93%)Writing library : Lavc56.16.100
    AudioID : 1Format : MPEG AudioFormat version : Version 1Format profile : Layer 3Mode : Joint stereoMode extension : MS StereoCodec ID : 55Codec ID/Hint : MP3Duration : 1h 2mnBit rate mode : ConstantBit rate : 128 KbpsChannel(s) : 2 channelsSampling rate : 44.1 KHzCompression mode : LossyStream size : 57.5 MiB (6%)Alignment : Split accross interleavesInterleave, duration : 40 ms (1.00 video frame)Interleave, preload duration : 500 ms


    Download .torrent

    Download free and at maximum speed!

    How to Download? · What is a torrent? · Ratings and Limitations

    The site does not extend and does not store electronic(digital) versions of products, and only gives access to a reference catalogue created by users on torrent-files which contain only lists of the hash-sums, the earnest entreaty, with complaints(abuse) to access directly to the user. Files for an exchange on tracker are given by users of a site, and the administration does not bear the responsibility for their maintenance. The request to not fill in the files protected by copyrights, and also files of the illegal maintenance!

    [Profile] [PM]
    Display posts from previous:    
    Reply to topic

    The time now is: Today 20:26

    All times are GMT + 3 Hours

    You cannot post new topics in this forum
    You cannot reply to topics in this forum
    You cannot edit your posts in this forum
    You cannot delete your posts in this forum
    You cannot vote in polls in this forum
    You cannot attach files in this forum
    You cannot download files in this forum