BitTorrentTracker PerecTracker.org
BitTorrentTracker PerecTracker.org
    
Регистрация  ·  Вход
 
 · 
Забыли пароль?

  • Пчёлка Майя / Maya The Bee – Movie (Алекс Стадерманн / Alexs Stadermann) [2014, фэнтези, приключения, BDRip-AVC] Dub (iTunes)

    Ответить на тему
     
    Автор Сообщение

    rechyn

    Создавать темы 13-Мар-2015 22:55

           

    [Цитировать]

    Пчёлка Майя / Maya The Bee – Movie«Невероятно сладкая история»-Страна: Австралия, Германия | Buzz Studios
    Жанр: фэнтези, приключения
    Продолжительность: 01:28:10
    Год выпуска: 2014
    Перевод: Профессиональный (полное дублирование) iTunes
    Русские субтитры: нет
    Режиссёр: Алекс Стадерманн / Alexs Stadermann
    Роли озвучивали: Нина Шаттон, Коди Смит-МакФи, Ноа Тейлор, Джеки Уивер, Ричард Роксбург, Мириам Маргулис, Джастин Кларк, Энди МакФи, Косма Шива Хаген, Коко Джек Гиллис-ОписаниеЛегендарная пчелка доросла до большого экрана. Любопытная Пчелка Майя всегда в поисках приключений и с готовностью перевернет все в улье с ног на голову, чем нередко выводит из себя наставницу госпожу Кассандру. Впрочем, в улье случилось гораздо более глобальное несчастье — похищен королевский нектар, эликсир жизни пчелиной Королевы! Советница монарха Жужжала обвиняет во всем ос и выставляет Майю их сообщницей. Вместе со своим лучшим другом Уилли отважная пчелка вынуждена отправиться в полное опасностей путешествие, чтобы разыскать украденную ценность и спасти жизнь своей Королеве.-Сэмпл

    IMDb: 6.20 (183)
    Качество: BDRip-AVC Maya.the.Bee.Movie.2014.1080p.2D+3D.ESP.Blu-ray.AVC.DTS-HD.MA.5.1-ReHD
    Формат: MKV
    Видео: AVC 2580 Kbps 1152 x 624 (1.846) 23.976 fps
    Аудио: AC-3 384 Kbps 6 channels, 48.0 KHz DUB iTunes
    Субтитры: Нет
    MI | Log

    Log

    x264 [info]: frame I:1309 Avg QP:13.53 size: 75678
    x264 [info]: frame P:32537 Avg QP:15.32 size: 26336
    x264 [info]: frame B:92999 Avg QP:18.76 size: 8483
    x264 [info]: consecutive B-frames: 4.7% 4.6% 14.6% 23.1% 13.5% 33.9% 2.9% 0.6% 0.8% 0.4% 0.2% 0.4% 0.4%
    x264 [info]: mb I I16..4: 11.6% 64.4% 24.1%
    x264 [info]: mb P I16..4: 2.7% 14.4% 3.1% P16..4: 27.6% 30.1% 10.0% 1.7% 0.3% skip:10.2%
    x264 [info]: mb B I16..4: 0.5% 1.9% 0.3% B16..8: 30.7% 18.7% 3.0% direct: 3.5% skip:41.4% L0:41.7% L1:46.0% BI:12.2%
    x264 [info]: 8x8 transform intra:70.5% inter:57.8%
    x264 [info]: direct mvs spatial:100.0% temporal:0.0%
    x264 [info]: coded y,uvDC,uvAC intra: 72.0% 87.4% 74.8% inter: 12.6% 15.5% 6.0%
    x264 [info]: i16 v,h,dc,p: 28% 11% 4% 56%
    x264 [info]: i8 v,h,dc,ddl,ddr,vr,hd,vl,hu: 11% 10% 10% 9% 11% 12% 11% 12% 13%
    x264 [info]: i4 v,h,dc,ddl,ddr,vr,hd,vl,hu: 12% 10% 12% 8% 15% 13% 12% 9% 10%
    x264 [info]: i8c dc,h,v,p: 37% 25% 18% 20%
    x264 [info]: Weighted P-Frames: Y:2.0% UV:1.6%
    x264 [info]: ref P L0: 53.3% 7.0% 17.3% 6.0% 4.4% 3.4% 2.7% 1.6% 1.4% 1.3% 1.2% 0.3% 0.0%
    x264 [info]: ref B L0: 78.2% 11.0% 4.4% 2.0% 1.4% 1.0% 0.9% 0.5% 0.4% 0.2%
    x264 [info]: ref B L1: 93.1% 6.9%
    x264 [info]: kb/s:2638.52
    x264 [total]: encoded 126845 frames, 8.83 fps, 2638.52 kb/s, duration 3:59:18.89
    Format                                   : MatroskaFormat version                           : Version 4 / Version 2File size                                : 1.86 GiBDuration                                 : 1h 28mnOverall bit rate                         : 3 024 KbpsEncoded date                             : UTC 2015-01-26 11:01:09Writing application                      : mkvmerge v6.7.0 ('Back to the Ground') 32bit built on Jan  8 2014 15:03:17Writing library                          : libebml v1.3.0 + libmatroska v1.4.1
    VideoID : 1Format : AVCFormat/Info : Advanced Video CodecFormat profile : High@L4.1Format settings, CABAC : YesFormat settings, ReFrames : 11 framesCodec ID : V_MPEG4/ISO/AVCDuration : 1h 28mnBit rate : 2 580 KbpsWidth : 1 152 pixelsHeight : 624 pixelsDisplay aspect ratio : 1.85:1Frame rate mode : ConstantFrame rate : 23.976 fpsColor space : YUVChroma subsampling : 4:2:0Bit depth : 8 bitsScan type : ProgressiveBits/(Pixel*Frame) : 0.150Stream size : 1.59 GiB (85%)Title : Maya The Bee - Movie [rutracker.org]Writing library : x264 core 144 r2525kMod 40bb568Encoding settings : cabac=1 / ref=11 / deblock=1:-2:-1 / analyse=0x3:0x133 / me=umh / subme=11 / psy=1 / fade_compensate=0.00 / psy_rd=1.00:0.05 / mixed_ref=1 / me_range=32 / chroma_me=1 / trellis=2 / 8x8dct=1 / cqm=0 / deadzone=21,11 / fast_pskip=0 / chroma_qp_offset=-3 / threads=12 / lookahead_threads=3 / sliced_threads=0 / nr=0 / decimate=1 / interlaced=0 / bluray_compat=0 / constrained_intra=0 / fgo=0 / bframes=12 / b_pyramid=2 / b_adapt=2 / b_bias=0 / direct=3 / weightb=1 / open_gop=0 / weightp=2 / keyint=250 / keyint_min=23 / scenecut=40 / intra_refresh=0 / rc_lookahead=60 / rc=crf / mbtree=0 / crf=17.3000 / qcomp=0.60 / qpmin=0 / qpmax=69 / qpstep=4 / vbv_maxrate=50000 / vbv_bufsize=62500 / crf_max=0.0 / nal_hrd=none / filler=0 / ip_ratio=1.40 / pb_ratio=1.30 / aq=3:0.90Language : EnglishDefault : YesForced : No
    AudioID : 2Format : AC-3Format/Info : Audio Coding 3Mode extension : CM (complete main)Format settings, Endianness : BigCodec ID : A_AC3Duration : 1h 28mnBit rate mode : ConstantBit rate : 384 KbpsChannel(s) : 6 channelsChannel positions : Front: L C R, Side: L R, LFESampling rate : 48.0 KHzBit depth : 16 bitsCompression mode : LossyStream size : 242 MiB (13%)Title : Dub [iTunes]Language : RussianDefault : YesForced : No
    Menu00:00:00.000 : en:00:00:00.00000:00:26.318 : en:00:00:26.31800:08:05.985 : en:00:08:05.98500:13:21.259 : en:00:13:21.25900:15:55.872 : en:00:15:55.87200:23:21.483 : en:00:23:21.48300:27:33.944 : en:00:27:33.94400:36:37.362 : en:00:36:37.36200:39:46.676 : en:00:39:46.67600:49:49.320 : en:00:49:49.32001:00:39.761 : en:01:00:39.76101:09:23.618 : en:01:09:23.61801:16:40.596 : en:01:16:40.596

    Скриншоты | Rip vs Source





    Source
    Скачать .torrent

    Скачать торрент-файл бесплатно и на максимальной скорости!

    Как скачивать? · Что такое торрент? · Рейтинг и ограничения

    !ВНИМАНИЕ!
    Сайт не распространяет и не хранит электронные версии произведений, а занимается лишь лишь предоставлением доступа к создаваемому пользователями каталогу ссылок на торрент-файлы, которые содержат только списки хеш-сумм, убедительная просьба с жалобами обращаться напрямую к пользователю. Файлы для обмена на трекере предоставлены пользователями сайта, и администрация не несёт ответственности за их содержание. Просьба не заливать файлы, защищенные авторскими правами, а также файлы нелегального содержания!


    _________________
    [Профиль] [ЛС]
    Показать сообщения:    
    Ответить на тему

    Текущее время: Сегодня, в 00:03

    Часовой пояс: GMT + 2



    Вы не можете начинать темы
    Вы не можете отвечать на сообщения
    Вы не можете редактировать свои сообщения
    Вы не можете удалять свои сообщения
    Вы не можете голосовать в опросах
    Вы не можете прикреплять файлы к сообщениям
    Вы не можете скачивать файлы