BitTorrentTracker PerecTracker.org
BitTorrentTracker PerecTracker.org
    
Регистрация  ·  Вход
 
 · 
Забыли пароль?

  • Солана и Людвиг – Рождество в Флоклипа / Solan og Ludvig - Jul i Flåklypa (Расмус А. Сивертсен / Rasmus A. Sivertsen) [2013, мультфильм, семейный, BDRip-AVC] DUB + VO + Sub Eng, Nor + Original (Nor)

    Ответить на тему
     
    Автор Сообщение

    rechyn

    Создавать темы 13-Мар-2015 22:55

           

    [Цитировать]

    Солана и Людвиг – Рождество в ФлоклипаSolan og Ludvig - Jul i Flåklypa-Страна: Норвегия
    Жанр: мультфильм, семейный
    Продолжительность: 01:16:25
    Год выпуска: 2013
    Перевод: Профессиональный (дублированный)
    Перевод 2: Одноголосый закадровый Max Nabokov
    Русские субтитры: нет
    Режиссёр: Расмус А. Сивертсен / Rasmus A. Sivertsen
    Роли озвучивали: Йон Брангот, Тронд Бренне, Андерс Бай, Каре Конради, Кари Анн Грёнсунд, Тронд Хёвик-Описание«Солан и Людвиг - Рождество во Флоклипе» - продолжение истории о полюбившихся всем персонажах Солане, Людвиг и Реодоре Фельгене. На сей раз они готовятся к Рождеству. Единственная проблема заключается в том, что в деревне не выпал снег, а этого Людвигу хочется больше всего. Поэтому изобретатель Реодор изготавливает самую мощную в мире снеговую пушку. Она попадает в руки редактора местной газеты Фриманда Плёсена, мечтающего о снежном буране. Тут-то и начинаются проблемы: бушует метель, Реодор исчез, и Солану с Людвигом приходится самим разбираться во всем этом хаосе.-Сэмпл

    IMDb: 7.00 (327)
    Качество: BDRip-AVC BDRemux 1080p -Azureus-
    Формат: MKV
    Видео: AVC 2493 Kbps 1136 x 638 (1.781) 24.000 fps
    Аудио: AC-3 192 Kbps 2 channels, 48.0 KHz DUB
    Аудио 2: AC-3 384 Kbps 6 channels, 48.0 KHz VO Max Nabokov
    Аудио 3: AC-3 384 Kbps 6 channels, 48.0 KHz Nor Отдельно
    Субтитры: Sub Eng, Nor
    MI | Log

    Log

    x264 [info]: frame I:956 Avg QP:15.54 size:107556
    x264 [info]: frame P:25035 Avg QP:16.76 size: 28519
    x264 [info]: frame B:84059 Avg QP:17.91 size: 7665
    x264 [info]: consecutive B-frames: 1.8% 1.7% 11.0% 30.6% 23.4% 24.7% 3.3% 1.0% 0.9% 0.3% 0.3% 0.5% 0.4%
    x264 [info]: mb I I16..4: 5.6% 74.1% 20.3%
    x264 [info]: mb P I16..4: 1.2% 9.7% 1.9% P16..4: 33.2% 29.5% 11.9% 2.1% 0.4% skip:10.1%
    x264 [info]: mb B I16..4: 0.3% 1.2% 0.2% B16..8: 28.2% 14.1% 2.5% direct: 5.0% skip:48.5% L0:46.5% L1:46.1% BI: 7.4%
    x264 [info]: 8x8 transform intra:74.9% inter:61.7%
    x264 [info]: coded y,uvDC,uvAC intra: 79.5% 84.1% 66.4% inter: 16.0% 22.9% 5.9%
    x264 [info]: i16 v,h,dc,p: 29% 17% 6% 49%
    x264 [info]: i8 v,h,dc,ddl,ddr,vr,hd,vl,hu: 9% 10% 11% 9% 12% 11% 13% 11% 15%
    x264 [info]: i4 v,h,dc,ddl,ddr,vr,hd,vl,hu: 11% 10% 10% 8% 13% 12% 13% 10% 13%
    x264 [info]: i8c dc,h,v,p: 41% 29% 18% 13%
    x264 [info]: Weighted P-Frames: Y:4.8% UV:3.3%
    x264 [info]: ref P L0: 44.4% 8.1% 17.8% 6.5% 5.7% 4.4% 4.1% 2.3% 2.2% 2.0% 2.0% 0.5% 0.0%
    x264 [info]: ref B L0: 60.6% 14.5% 7.9% 4.3% 3.4% 3.0% 2.6% 1.8% 1.2% 0.6%
    x264 [info]: ref B L1: 89.9% 10.1%
    x264 [info]: kb/s:2549.14
    x264 [total]: encoded 110050 frames, 9.49 fps, 2549.14 kb/s, duration 3:13:15.20
    Format                                   : MatroskaFormat version                           : Version 4 / Version 2File size                                : 1.67 GiBDuration                                 : 1h 16mnOverall bit rate                         : 3 127 KbpsEncoded date                             : UTC 2015-01-28 09:04:31Writing application                      : mkvmerge v6.7.0 ('Back to the Ground') 32bit built on Jan  8 2014 15:03:17Writing library                          : libebml v1.3.0 + libmatroska v1.4.1
    VideoID : 1Format : AVCFormat/Info : Advanced Video CodecFormat profile : High@L4.1Format settings, CABAC : YesFormat settings, ReFrames : 11 framesCodec ID : V_MPEG4/ISO/AVCDuration : 1h 16mnBit rate : 2 489 KbpsWidth : 1 136 pixelsHeight : 638 pixelsDisplay aspect ratio : 16:9Frame rate mode : ConstantFrame rate : 24.000 fpsColor space : YUVChroma subsampling : 4:2:0Bit depth : 8 bitsScan type : ProgressiveBits/(Pixel*Frame) : 0.143Stream size : 1.33 GiB (80%)Title : Solan og Ludvig [rutracker.org]Writing library : x264 core 144 r2525kMod 40bb568Encoding settings : cabac=1 / ref=11 / deblock=1:-2:-1 / analyse=0x3:0x133 / me=umh / subme=11 / psy=1 / fade_compensate=0.00 / psy_rd=1.00:0.05 / mixed_ref=1 / me_range=32 / chroma_me=1 / trellis=2 / 8x8dct=1 / cqm=0 / deadzone=21,11 / fast_pskip=0 / chroma_qp_offset=-3 / threads=12 / lookahead_threads=3 / sliced_threads=0 / nr=0 / decimate=1 / interlaced=0 / bluray_compat=0 / constrained_intra=0 / fgo=0 / bframes=12 / b_pyramid=2 / b_adapt=2 / b_bias=0 / direct=1 / weightb=1 / open_gop=0 / weightp=2 / keyint=250 / keyint_min=23 / scenecut=40 / intra_refresh=0 / rc_lookahead=60 / rc=crf / mbtree=0 / crf=18.3000 / qcomp=0.60 / qpmin=0 / qpmax=69 / qpstep=4 / vbv_maxrate=50000 / vbv_bufsize=62500 / crf_max=0.0 / nal_hrd=none / filler=0 / ip_ratio=1.40 / pb_ratio=1.30 / aq=3:0.90Language : NorwegianDefault : YesForced : No
    Audio #1ID : 2Format : AC-3Format/Info : Audio Coding 3Mode extension : CM (complete main)Format settings, Endianness : BigCodec ID : A_AC3Duration : 1h 16mnBit rate mode : ConstantBit rate : 192 KbpsChannel(s) : 2 channelsChannel positions : Front: L RSampling rate : 48.0 KHzBit depth : 16 bitsCompression mode : LossyStream size : 105 MiB (6%)Title : DUBLanguage : RussianDefault : YesForced : No
    Audio #2ID : 3Format : AC-3Format/Info : Audio Coding 3Mode extension : CM (complete main)Format settings, Endianness : BigCodec ID : A_AC3Duration : 1h 16mnBit rate mode : ConstantBit rate : 384 KbpsChannel(s) : 6 channelsChannel positions : Front: L C R, Side: L R, LFESampling rate : 48.0 KHzBit depth : 16 bitsCompression mode : LossyStream size : 210 MiB (12%)Title : VO [Max Nabokov]Language : RussianDefault : NoForced : No
    Text #1ID : 4Format : UTF-8Codec ID : S_TEXT/UTF8Codec ID/Info : UTF-8 Plain TextLanguage : EnglishDefault : NoForced : No
    Text #2ID : 5Format : UTF-8Codec ID : S_TEXT/UTF8Codec ID/Info : UTF-8 Plain TextLanguage : NorwegianDefault : NoForced : No
    Menu00:00:00.000 : no:00:00:00.00000:05:20.791 : no:00:05:20.79100:12:33.833 : no:00:12:33.83300:20:17.958 : no:00:20:17.95800:28:15.375 : no:00:28:15.37500:35:48.125 : no:00:35:48.12500:42:45.250 : no:00:42:45.25000:50:18.791 : no:00:50:18.79100:57:12.166 : no:00:57:12.16601:01:31.208 : no:01:01:31.20801:09:05.833 : no:01:09:05.83301:13:01.375 : no:01:13:01.375

    Скриншоты | Rip vs Source

    Source
    Скачать .torrent

    Скачать торрент-файл бесплатно и на максимальной скорости!

    Как скачивать? · Что такое торрент? · Рейтинг и ограничения

    !ВНИМАНИЕ!
    Сайт не распространяет и не хранит электронные версии произведений, а занимается лишь лишь предоставлением доступа к создаваемому пользователями каталогу ссылок на торрент-файлы, которые содержат только списки хеш-сумм, убедительная просьба с жалобами обращаться напрямую к пользователю. Файлы для обмена на трекере предоставлены пользователями сайта, и администрация не несёт ответственности за их содержание. Просьба не заливать файлы, защищенные авторскими правами, а также файлы нелегального содержания!


    _________________
    [Профиль] [ЛС]
    Показать сообщения:    
    Ответить на тему

    Текущее время: Сегодня, в 11:59

    Часовой пояс: GMT + 2



    Вы не можете начинать темы
    Вы не можете отвечать на сообщения
    Вы не можете редактировать свои сообщения
    Вы не можете удалять свои сообщения
    Вы не можете голосовать в опросах
    Вы не можете прикреплять файлы к сообщениям
    Вы не можете скачивать файлы