BitTorrentTracker PerecTracker.org
BitTorrentTracker PerecTracker.org
    
Регистрация  ·  Вход
 
 · 
Забыли пароль?

  • Университет монстров / Monsters University (Дэн Скэнлон / Dan Scanlon) [2013, фэнтези, комедия, приключения, семейный, BDRip-AVC] [Локализованный видеоряд] Dub + Rus, Eng Sub + Original [Eng]

    Ответить на тему
     
    Автор Сообщение

    Flirldrerve

    Создавать темы 13-Мар-2015 22:55

           

    [Цитировать]


    Университет монстров / Monsters University«Самый страшный универ в мире»-Страна: США
    Жанр: фэнтези, комедия, приключения, семейный
    Продолжительность: 01:44:17
    Год выпуска: 2013
    Перевод: Профессиональный (дублированный) Blu-ray CEE
    Русские субтитры: есть
    Режиссёр: Дэн Скэнлон / Dan Scanlon
    Роли озвучивали: Джон Гудман, Билли Кристал, Стив Бушеми, Хелен Миррен, Питер Сон, Джоэль Мюррей, Шон Хейс, Дэйв Фоли, Чарли Дэй, Альфред Молина.-ОписаниеМайк и Салли — самые опытные пугатели в Монстрополисе, но так было далеко не всегда. Когда они встретились впервые, эти монстры терпеть друг друга не могли. «Университет Монстров» — история о том, как наши старые знакомые прошли путь от взаимной неприязни к крепкой дружбе.-
    «Университе́т мо́нстров» (Monsters University) — компьютерный мультфильм компании Pixar, приквел комедийного мультфильма «Корпорация монстров». Дистрибьютором картины выступила компания Walt Disney Pictures.
    Сэмпл

    IMDb: 7.40 (170 038)
    Качество: BDRip-AVC Monsters University.2013.Blu-Ray Disc 1080p HDClub
    Формат: MKV
    Видео: AVC 3133 Kbps 1152 x 648 (1.778) 23.976 fps
    Аудио: AC-3 384 Kbps 6 channels, 48.0 KHz Dub
    Аудио 2: AC-3 384 Kbps 6 channels, 48.0 KHz Eng
    Субтитры: Rus, Eng SRT
    MI | Log

    Log

    x264 [info]: frame I:1358 Avg QP:14.34 size:114077
    x264 [info]: frame P:39197 Avg QP:16.24 size: 33377
    x264 [info]: frame B:109480 Avg QP:19.17 size: 9567
    x264 [info]: consecutive B-frames: 4.0% 3.9% 22.3% 23.9% 15.1% 21.7% 2.0% 2.7% 2.5% 0.4% 0.5% 0.5% 0.1% 0.3% 0.2%
    x264 [info]: mb I I16..4: 5.2% 73.1% 21.7%
    x264 [info]: mb P I16..4: 0.8% 12.1% 1.9% P16..4: 27.3% 31.0% 12.7% 2.7% 0.3% skip:11.2%
    x264 [info]: mb B I16..4: 0.2% 1.5% 0.2% B16..8: 29.3% 18.2% 3.3% direct: 3.8% skip:43.5% L0:39.7% L1:45.6% BI:14.7%
    x264 [info]: 8x8 transform intra:80.1% inter:56.3%
    x264 [info]: direct mvs spatial:100.0% temporal:0.0%
    x264 [info]: coded y,uvDC,uvAC intra: 87.6% 90.6% 80.8% inter: 15.8% 17.9% 8.8%
    x264 [info]: i16 v,h,dc,p: 18% 13% 4% 64%
    x264 [info]: i8 v,h,dc,ddl,ddr,vr,hd,vl,hu: 12% 11% 8% 9% 11% 11% 12% 12% 15%
    x264 [info]: i4 v,h,dc,ddl,ddr,vr,hd,vl,hu: 13% 10% 8% 8% 14% 13% 13% 10% 12%
    x264 [info]: i8c dc,h,v,p: 38% 25% 18% 19%
    x264 [info]: Weighted P-Frames: Y:3.3% UV:2.6%
    x264 [info]: ref P L0: 53.6% 9.8% 15.4% 6.3% 4.0% 3.2% 2.4% 1.5% 1.2% 1.2% 1.1% 0.4% 0.0%
    x264 [info]: ref B L0: 76.8% 10.6% 5.1% 2.4% 1.9% 1.1% 1.0% 0.6% 0.4% 0.2%
    x264 [info]: ref B L1: 92.0% 8.0%
    x264 [info]: kb/s:3209.63
    x264 [total]: encoded 150035 frames, 8.00 fps, 3209.64 kb/s, duration 5:12:31.99
    Format                                   : MatroskaFormat version                           : Version 4 / Version 2File size                                : 2.90 GiBDuration                                 : 1h 44mnOverall bit rate                         : 3 980 KbpsEncoded date                             : UTC 2015-01-28 23:29:33Writing application                      : mkvmerge v6.7.0 ('Back to the Ground') 32bit built on Jan  8 2014 15:03:17Writing library                          : libebml v1.3.0 + libmatroska v1.4.1
    VideoID : 1Format : AVCFormat/Info : Advanced Video CodecFormat profile : High@L4.1Format settings, CABAC : YesFormat settings, ReFrames : 11 framesCodec ID : V_MPEG4/ISO/AVCDuration : 1h 44mnBit rate : 3 133 KbpsWidth : 1 152 pixelsHeight : 648 pixelsDisplay aspect ratio : 16:9Frame rate mode : ConstantFrame rate : 23.976 fpsColor space : YUVChroma subsampling : 4:2:0Bit depth : 8 bitsScan type : ProgressiveBits/(Pixel*Frame) : 0.175Stream size : 2.28 GiB (79%)Title : Monsters University [rutracker.org]Writing library : x264 core 144 r2525kMod 40bb568Encoding settings : cabac=1 / ref=11 / deblock=1:-2:-1 / analyse=0x3:0x133 / me=umh / subme=11 / psy=1 / fade_compensate=0.00 / psy_rd=1.00:0.05 / mixed_ref=1 / me_range=32 / chroma_me=1 / trellis=2 / 8x8dct=1 / cqm=0 / deadzone=21,11 / fast_pskip=0 / chroma_qp_offset=-3 / threads=12 / lookahead_threads=3 / sliced_threads=0 / nr=0 / decimate=1 / interlaced=0 / bluray_compat=0 / constrained_intra=0 / fgo=0 / bframes=14 / b_pyramid=2 / b_adapt=2 / b_bias=0 / direct=3 / weightb=1 / open_gop=0 / weightp=2 / keyint=250 / keyint_min=23 / scenecut=40 / intra_refresh=0 / rc_lookahead=80 / rc=crf / mbtree=0 / crf=17.3000 / qcomp=0.60 / qpmin=0 / qpmax=69 / qpstep=4 / vbv_maxrate=50000 / vbv_bufsize=62500 / crf_max=0.0 / nal_hrd=none / filler=0 / ip_ratio=1.40 / pb_ratio=1.30 / aq=3:0.90Language : EnglishDefault : YesForced : No
    Audio #1ID : 2Format : AC-3Format/Info : Audio Coding 3Mode extension : CM (complete main)Format settings, Endianness : BigCodec ID : A_AC3Duration : 1h 44mnBit rate mode : ConstantBit rate : 384 KbpsChannel(s) : 6 channelsChannel positions : Front: L C R, Side: L R, LFESampling rate : 48.0 KHzBit depth : 16 bitsCompression mode : LossyStream size : 286 MiB (10%)Title : DubLanguage : RussianDefault : YesForced : No
    Audio #2ID : 3Format : AC-3Format/Info : Audio Coding 3Mode extension : CM (complete main)Format settings, Endianness : BigCodec ID : A_AC3Duration : 1h 44mnBit rate mode : ConstantBit rate : 384 KbpsChannel(s) : 6 channelsChannel positions : Front: L C R, Side: L R, LFESampling rate : 48.0 KHzBit depth : 16 bitsCompression mode : LossyStream size : 286 MiB (10%)Title : OriginalLanguage : EnglishDefault : NoForced : No
    Text #1ID : 4Format : UTF-8Codec ID : S_TEXT/UTF8Codec ID/Info : UTF-8 Plain TextTitle : FullLanguage : RussianDefault : NoForced : No
    Text #2ID : 5Format : UTF-8Codec ID : S_TEXT/UTF8Codec ID/Info : UTF-8 Plain TextLanguage : EnglishDefault : NoForced : No
    Text #3ID : 6Format : UTF-8Codec ID : S_TEXT/UTF8Codec ID/Info : UTF-8 Plain TextTitle : SDHLanguage : EnglishDefault : NoForced : No
    Menu00:00:00.000 : en:00:00:00.00000:06:26.720 : en:00:06:26.72000:07:06.885 : en:00:07:06.88500:10:54.112 : en:00:10:54.11200:12:19.947 : en:00:12:19.94700:16:09.969 : en:00:16:09.96900:18:15.636 : en:00:18:15.63600:19:37.593 : en:00:19:37.59300:21:06.849 : en:00:21:06.84900:23:43.630 : en:00:23:43.63000:29:22.719 : en:00:29:22.71900:30:39.462 : en:00:30:39.46200:33:38.099 : en:00:33:38.09900:36:30.980 : en:00:36:30.98000:38:19.422 : en:00:38:19.42200:39:22.568 : en:00:39:22.56800:45:13.335 : en:00:45:13.33500:47:14.832 : en:00:47:14.83200:51:08.148 : en:00:51:08.14800:55:21.192 : en:00:55:21.19200:57:30.321 : en:00:57:30.32101:01:42.240 : en:01:01:42.24001:04:37.290 : en:01:04:37.29001:07:33.007 : en:01:07:33.00701:14:11.321 : en:01:14:11.32101:18:07.849 : en:01:18:07.84901:19:25.719 : en:01:19:25.71901:23:53.403 : en:01:23:53.40301:24:38.656 : en:01:24:38.65601:28:00.233 : en:01:28:00.23301:32:51.357 : en:01:32:51.35701:34:24.033 : en:01:34:24.033

    Скриншоты | Rip vs Source





    Source
    Скачать .torrent

    Скачать торрент-файл бесплатно и на максимальной скорости!

    Как скачивать? · Что такое торрент? · Рейтинг и ограничения

    !ВНИМАНИЕ!
    Сайт не распространяет и не хранит электронные версии произведений, а занимается лишь лишь предоставлением доступа к создаваемому пользователями каталогу ссылок на торрент-файлы, которые содержат только списки хеш-сумм, убедительная просьба с жалобами обращаться напрямую к пользователю. Файлы для обмена на трекере предоставлены пользователями сайта, и администрация не несёт ответственности за их содержание. Просьба не заливать файлы, защищенные авторскими правами, а также файлы нелегального содержания!


    _________________
    [Профиль] [ЛС]
    Показать сообщения:    
    Ответить на тему

    Текущее время: Сегодня, в 20:19

    Часовой пояс: GMT + 2



    Вы не можете начинать темы
    Вы не можете отвечать на сообщения
    Вы не можете редактировать свои сообщения
    Вы не можете удалять свои сообщения
    Вы не можете голосовать в опросах
    Вы не можете прикреплять файлы к сообщениям
    Вы не можете скачивать файлы