BitTorrentTracker PerecTracker.org
BitTorrentTracker PerecTracker.org
    
Регистрация  ·  Вход
 
 · 
Забыли пароль?

  • Собачки Флаппи / Fluppy Dogs (Фред Вульф / Fred Wolf) [1986, Приключения, VHSRip] Rus Sub

    Ответить на тему
     
    Автор Сообщение

    rechyn

    Создавать темы 13-Мар-2015 22:55

           

    [Цитировать]

    Собачки Флаппи / Fluppy Dogs
    Страна: США
    Жанр: Приключения
    Продолжительность: 00:45:03
    Год выпуска: 1986
    Перевод: Субтитры (Хардсаб)
    Русские субтитры: есть
    Режиссёр: Фред Вульф/Fred Wolf
    Описание: Группа человекоподобных милых собачек, которые прибыли из другого измерения оказались на Земле в Северной Америке и сразу попали в неприятности. Они разделились и должны скрывать свою истинную природу. Их единственный шанс возвращения домой, это мальчик и девочка с которыми они подружились. Тем не менее, богатый коллекционер редких животных пытается поймать их и всячески им мешает.
    Очень добрая и позитивная история.
    Доп. информация: Это пилотная серия диснеевского сериала, но по ряду причин проект был закрыт. По сути эта серия превратилась в отдельный, завершенный мультфильм. Режиссер уже через год создал первую серию утиных историй.
    Крайне редкий мультфильм. На русском языке до сих пор его вообще не было в сети. Я этот мульт посмотрел ребенком более 20 лет назад. Совершенно случайно он был записан на VHS кассету за границей, её рип тут и представлен. Скорее всего это самый лучший (по качеству) рип в сети.
    Первые и последние 20 секунд взяты с версии этого мультика в ютубе.
    P.S. Оцифровал и перевел ещё лет 8 назад, просто всё как то некогда было выложить.
    http://www.imdb.com/title/tt0090432/
    http://en.wikipedia.org/wiki/Fluppy_Dogs
    Качество: VHSRip
    Формат: AVI
    Видео: Xvid, 720x544, 25fps, 3 527 Kbps
    Аудио: MP3, 48000Hz, stereo, 102kbps
    Субтитры: Русский (Хардсаб)

    Подробные технические данные

    GeneralComplete name : Fluppy Dogs_1986.aviFormat : AVIFormat/Info : Audio Video InterleaveFile size : 1.15 GiBDuration : 45mn 2sOverall bit rate mode : VariableOverall bit rate : 3 643 KbpsWriting application : VirtualDubMod 1.5.4.1 (build 2178/release)Writing library : VirtualDubMod build 2178/release
    VideoID : 0Format : MPEG-4 VisualFormat profile : Advanced Simple@L5Format settings, BVOP : 1Format settings, QPel : NoFormat settings, GMC : No warppointsFormat settings, Matrix : CustomCodec ID : XVIDCodec ID/Hint : XviDDuration : 45mn 2sBit rate : 3 527 KbpsWidth : 720 pixelsHeight : 544 pixelsDisplay aspect ratio : 4:3Frame rate : 25.000 fpsColor space : YUVChroma subsampling : 4:2:0Bit depth : 8 bitsScan type : ProgressiveCompression mode : LossyBits/(Pixel*Frame) : 0.360Stream size : 1.11 GiB (97%)Writing library : XviD 1.2.0.dev47 (UTC 2006-11-01)
    AudioID : 1Format : MPEG AudioFormat version : Version 1Format profile : Layer 3Mode : Joint stereoMode extension : MS StereoCodec ID : 55Codec ID/Hint : MP3Duration : 45mn 2sBit rate mode : VariableBit rate : 103 KbpsNominal bit rate : 128 KbpsChannel(s) : 2 channelsSampling rate : 48.0 KHzCompression mode : LossyStream size : 33.2 MiB (3%)Alignment : Aligned on interleavesInterleave, duration : 24 ms (0.60 video frame)Interleave, preload duration : 427 msWriting library : LAME3.97Encoding settings : -m j -V 4 -q 2 -lowpass 17 --abr 128

    Скриншоты

    Скачать .torrent

    Скачать торрент-файл бесплатно и на максимальной скорости!

    Как скачивать? · Что такое торрент? · Рейтинг и ограничения

    !ВНИМАНИЕ!
    Сайт не распространяет и не хранит электронные версии произведений, а занимается лишь лишь предоставлением доступа к создаваемому пользователями каталогу ссылок на торрент-файлы, которые содержат только списки хеш-сумм, убедительная просьба с жалобами обращаться напрямую к пользователю. Файлы для обмена на трекере предоставлены пользователями сайта, и администрация не несёт ответственности за их содержание. Просьба не заливать файлы, защищенные авторскими правами, а также файлы нелегального содержания!


    _________________
    [Профиль] [ЛС]
    Показать сообщения:    
    Ответить на тему

    Текущее время: Сегодня, в 20:29

    Часовой пояс: GMT + 2



    Вы не можете начинать темы
    Вы не можете отвечать на сообщения
    Вы не можете редактировать свои сообщения
    Вы не можете удалять свои сообщения
    Вы не можете голосовать в опросах
    Вы не можете прикреплять файлы к сообщениям
    Вы не можете скачивать файлы