BitTorrentTracker PerecTracker.org
BitTorrentTracker PerecTracker.org
    
Регистрация  ·  Вход
 
 · 
Забыли пароль?

  • Книга жизни / The Book of Life (Хорхе Р. Гутьеррес / Jorge R. Gutierrez) [2014, Фэнтези, Мелодрама, Комедия, Приключения, Семейный, BDRip-AVC] Dub [iTunes] + DVO + Rus, Ukr, Eng Sub + Original eng

    Ответить на тему
     
    Автор Сообщение

    rechyn

    Создавать темы 13-Мар-2015 22:55

           

    [Цитировать]


    Книга жизни | The Book of Life
    -Страна: США (Reel FX Animation Studios, 20th Century Fox)
    Жанр: Фэнтези, Мелодрама, Комедия, Приключения, Семейный
    Продолжительность: 01:35:24
    Год выпуска: 2014
    Перевод: Профессиональный (дублированный) iTunes
    Перевод 2: Любительский (двухголосый закадровый) (Студия Пиратского Дубляжа)
    Русские субтитры: есть
    Режиссёр: Хорхе Р. Гутьеррес / Jorge R. Gutierrez
    Продюсер: Гильермо дель Торо | Guillermo del Toro, Аарон Бергер, Брэд Букер
    Роли озвучивали: Manolo - Диего Луна, Maria - Зои Салдана, Joaquin - Ченнинг Татум, Xibalba - Рон Перлман, Mary Beth - Кристина Эпплгейт, Candle Maker - Айс Кьюб, La Muerte - Кейт дель Кастильо, Carlos Sanchez - Гектор Элизондо, Skeleton Luis - Дэнни Трехо, General Posada / Dali / Chuy - Карлос Аласраки, Skeleton Carmen - Ана де ла Регера, Skeleton Jorge - Пласидо Доминго, Land of the Remembered Captain - Мигель Сандовал, Pancho Rodriguez - Чич Марин, Land of the Remembered Captain's Wife - Гильермо дель Торо-ОписаниеВ мультфильме описывается романтическая история любви на фоне празднования Дня мертвых в Мексике.
    Духи Ла Муэрте и Шибальба посещают городок Сан Анхель в День Мёртвых, где они заключают пари после того как встречают пару мальчишек, Маноло и Хоакина, которые хотят завоевать сердце Марии.
    -
    Книга жизни (The Book of Life) — американский компьютерный анимационный мультфильм производства Reel FX Creative Studios и распространяется компанией "20th Century Fox"

    Сэмпл

    IMDb: 7.30 (22 213)
    Качество: BDRip-AVC The.Book.Of.Life.2014.1080p.BluRay.AVC.DTS-HD.MA.7.1-RARBG
    Формат: MKV
    Видео: AVC 3484 Kbps 1152 x 482 (2.390) 23.976 fps
    Аудио: AC-3 192 Kbps 2 channels, 48.0 KHz Rus Dub iTunes
    Аудио 2: AC-3 384 Kbps 6 channels, 48.0 KHz DVO
    Аудио 3: AC-3 384 Kbps 6 channels, 48.0 KHz Eng
    Субтитры: Rus [Forced, Full], Ukr [Full], Eng [Full, SDH] SRT
    MI | Log

    Log

    x264 [info]: frame I:1561 Avg QP:15.48 size:119983
    x264 [info]: frame P:36497 Avg QP:17.46 size: 35485
    x264 [info]: frame B:99197 Avg QP:20.27 size: 10819
    x264 [info]: consecutive B-frames: 4.4% 4.8% 13.1% 39.6% 17.5% 16.0% 1.8% 1.0% 0.4% 0.3% 0.2% 0.2% 0.2% 0.2% 0.3%
    x264 [info]: mb I I16..4: 7.0% 56.7% 36.3%
    x264 [info]: mb P I16..4: 0.7% 11.2% 3.8% P16..4: 23.5% 27.0% 15.8% 5.0% 0.9% skip:12.3%
    x264 [info]: mb B I16..4: 0.1% 1.6% 0.6% B16..8: 26.5% 20.0% 4.9% direct: 5.4% skip:40.9% L0:38.7% L1:41.2% BI:20.1%
    x264 [info]: 8x8 transform intra:67.9% inter:46.6%
    x264 [info]: direct mvs spatial:99.9% temporal:0.1%
    x264 [info]: coded y,uvDC,uvAC intra: 88.0% 91.2% 80.7% inter: 22.3% 20.8% 11.0%
    x264 [info]: i16 v,h,dc,p: 16% 20% 10% 53%
    x264 [info]: i8 v,h,dc,ddl,ddr,vr,hd,vl,hu: 12% 12% 8% 8% 11% 11% 12% 11% 14%
    x264 [info]: i4 v,h,dc,ddl,ddr,vr,hd,vl,hu: 28% 9% 5% 7% 11% 10% 10% 9% 11%
    x264 [info]: i8c dc,h,v,p: 38% 27% 18% 16%
    x264 [info]: Weighted P-Frames: Y:4.7% UV:2.7%
    x264 [info]: ref P L0: 50.6% 12.1% 14.2% 6.0% 4.3% 3.4% 2.7% 1.7% 1.4% 1.2% 1.0% 1.1% 0.2% 0.0%
    x264 [info]: ref B L0: 75.7% 10.0% 5.5% 2.5% 1.9% 1.4% 1.2% 0.7% 0.6% 0.4% 0.2%
    x264 [info]: ref B L1: 92.6% 7.4%
    x264 [info]: kb/s:3571.38
    x264 [total]: encoded 137255 frames, 9.73 fps, 3571.38 kb/s, duration 3:55:08.56
    Format                                   : MatroskaFormat version                           : Version 4 / Version 2File size                                : 3.02 GiBDuration                                 : 1h 35mnOverall bit rate                         : 4 534 KbpsEncoded date                             : UTC 2015-03-03 09:21:56Writing application                      : mkvmerge v6.7.0 ('Back to the Ground') 32bit built on Jan  8 2014 15:03:17Writing library                          : libebml v1.3.0 + libmatroska v1.4.1
    VideoID : 1Format : AVCFormat/Info : Advanced Video CodecFormat profile : High@L4.1Format settings, CABAC : YesFormat settings, ReFrames : 12 framesCodec ID : V_MPEG4/ISO/AVCDuration : 1h 35mnBit rate : 3 484 KbpsWidth : 1 152 pixelsHeight : 482 pixelsDisplay aspect ratio : 2.40:1Frame rate mode : ConstantFrame rate : 23.976 fpsColor space : YUVChroma subsampling : 4:2:0Bit depth : 8 bitsScan type : ProgressiveBits/(Pixel*Frame) : 0.262Stream size : 2.32 GiB (77%)Title : The Book of Life [rutracker.org]Writing library : x264 core 144 r2525kMod 40bb568Encoding settings : cabac=1 / ref=12 / deblock=1:-2:-1 / analyse=0x3:0x133 / me=umh / subme=11 / psy=1 / fade_compensate=0.00 / psy_rd=1.00:0.05 / mixed_ref=1 / me_range=32 / chroma_me=1 / trellis=2 / 8x8dct=1 / cqm=0 / deadzone=21,11 / fast_pskip=0 / chroma_qp_offset=-3 / threads=12 / lookahead_threads=3 / sliced_threads=0 / nr=0 / decimate=1 / interlaced=0 / bluray_compat=0 / constrained_intra=0 / fgo=0 / bframes=14 / b_pyramid=2 / b_adapt=2 / b_bias=0 / direct=3 / weightb=1 / open_gop=0 / weightp=2 / keyint=250 / keyint_min=23 / scenecut=40 / intra_refresh=0 / rc_lookahead=80 / rc=crf / mbtree=0 / crf=16.6000 / qcomp=0.60 / qpmin=0 / qpmax=69 / qpstep=4 / vbv_maxrate=50000 / vbv_bufsize=62500 / crf_max=0.0 / nal_hrd=none / filler=0 / ip_ratio=1.40 / pb_ratio=1.30 / aq=3:0.90Language : EnglishDefault : YesForced : No
    Audio #1ID : 2Format : AC-3Format/Info : Audio Coding 3Mode extension : CM (complete main)Format settings, Endianness : BigCodec ID : A_AC3Duration : 1h 35mnBit rate mode : ConstantBit rate : 192 KbpsChannel(s) : 2 channelsChannel positions : Front: L RSampling rate : 48.0 KHzBit depth : 16 bitsCompression mode : LossyStream size : 131 MiB (4%)Title : Dub [iTunes]Language : RussianDefault : YesForced : No
    Audio #2ID : 3Format : AC-3Format/Info : Audio Coding 3Mode extension : CM (complete main)Format settings, Endianness : BigCodec ID : A_AC3Duration : 1h 35mnBit rate mode : ConstantBit rate : 384 KbpsChannel(s) : 6 channelsChannel positions : Front: L C R, Side: L R, LFESampling rate : 48.0 KHzBit depth : 16 bitsCompression mode : LossyStream size : 262 MiB (8%)Title : DVO [Pirat Studio]Language : RussianDefault : NoForced : No
    Audio #3ID : 4Format : AC-3Format/Info : Audio Coding 3Mode extension : CM (complete main)Format settings, Endianness : BigCodec ID : A_AC3Duration : 1h 35mnBit rate mode : ConstantBit rate : 384 KbpsChannel(s) : 6 channelsChannel positions : Front: L C R, Side: L R, LFESampling rate : 48.0 KHzBit depth : 16 bitsCompression mode : LossyStream size : 262 MiB (8%)Title : OriginalLanguage : EnglishDefault : NoForced : No
    Text #1ID : 5Format : UTF-8Codec ID : S_TEXT/UTF8Codec ID/Info : UTF-8 Plain TextTitle : ForcedLanguage : RussianDefault : YesForced : No
    Text #2ID : 6Format : UTF-8Codec ID : S_TEXT/UTF8Codec ID/Info : UTF-8 Plain TextTitle : FullLanguage : RussianDefault : NoForced : No
    Text #3ID : 7Format : UTF-8Codec ID : S_TEXT/UTF8Codec ID/Info : UTF-8 Plain TextLanguage : UkrainianDefault : NoForced : No
    Text #4ID : 8Format : UTF-8Codec ID : S_TEXT/UTF8Codec ID/Info : UTF-8 Plain TextTitle : FullLanguage : EnglishDefault : NoForced : No
    Text #5ID : 9Format : UTF-8Codec ID : S_TEXT/UTF8Codec ID/Info : UTF-8 Plain TextTitle : SDHLanguage : EnglishDefault : NoForced : No
    Menu00:00:00.000 : :100:02:58.051 : :200:05:39.629 : :300:08:35.014 : :400:12:08.476 : :500:15:07.697 : :600:19:24.246 : :700:22:20.087 : :800:26:08.148 : :900:28:59.570 : :1000:33:02.145 : :1100:37:25.952 : :1200:41:07.088 : :1300:43:14.632 : :1400:47:02.485 : :1500:50:53.050 : :1600:53:13.231 : :1700:56:30.219 : :1801:00:16.278 : :1901:03:57.791 : :2001:06:48.378 : :2101:09:09.895 : :2201:11:52.015 : :2301:15:53.215 : :2401:18:52.769 : :2501:21:13.409 : :2601:23:33.841 : :2701:27:11.893 : :28

    Скриншоты




    Скачать .torrent

    Скачать торрент-файл бесплатно и на максимальной скорости!

    Как скачивать? · Что такое торрент? · Рейтинг и ограничения

    !ВНИМАНИЕ!
    Сайт не распространяет и не хранит электронные версии произведений, а занимается лишь лишь предоставлением доступа к создаваемому пользователями каталогу ссылок на торрент-файлы, которые содержат только списки хеш-сумм, убедительная просьба с жалобами обращаться напрямую к пользователю. Файлы для обмена на трекере предоставлены пользователями сайта, и администрация не несёт ответственности за их содержание. Просьба не заливать файлы, защищенные авторскими правами, а также файлы нелегального содержания!


    _________________
    [Профиль] [ЛС]
    Показать сообщения:    
    Ответить на тему

    Текущее время: Сегодня, в 12:42

    Часовой пояс: GMT + 2



    Вы не можете начинать темы
    Вы не можете отвечать на сообщения
    Вы не можете редактировать свои сообщения
    Вы не можете удалять свои сообщения
    Вы не можете голосовать в опросах
    Вы не можете прикреплять файлы к сообщениям
    Вы не можете скачивать файлы