Register  ·  Log in
Forgot password?

  • Хранитель легенды / The Easter Story Keepers (Джимми Т. Мураками / Jimmy T. Murakami) [1998, Анимация, VHSRip] AVO (Кашкин)

    Reply to topic
    Author Message


    Post 13-Mar-2015 23:55



    Хранитель легенды / The Easter Story Keepers
    Страна: США
    Жанр: Анимация
    Продолжительность: 01:09:33
    Год выпуска: 1998
    Перевод: Авторский (одноголосый закадровый) Кашкин
    Русские субтитры: нет
    Режиссёр: Джимми Т. Мураками / Jimmy T. Murakami
    Описание: Аннотация от alenavova:
    Трудные времена настали для Бена-пекаря, предводителя группы храбрых христиан, для его жены Елены и их приемных детей, когда их город захватил римский император Нерон. После чудесного побега они нашли спасение в катакомбах, где рассказы Бена о последних днях Христа и его воскрешении давали им силу и надежду. Этот мультфильм Вашим детям о вере, о семейных ценностях и важности праздника Пасхи.
    Доп. информация: Оцифровка VHS (личный архив) и получение VHSRip alenavova
    Эксклюзив для При размещении данного релиза на других сайтах ссылка на автора alenavova обязательна.

    Качество: VHSRip
    Формат: AVI
    Видео: 640x480 (1.33:1), 25 fps, XviD build 50 ~1307 kbps avg, 0.17 bit/pixel
    Аудио: 48 kHz, AC3 Dolby Digital, 2/0 (L,R) ch, ~192 kbps
    Субтитры: отсутствуют

    Подробные технические данные

    Хранители легенды - The Easter Story Keepers [by alenavova].aviFormat : AVIFormat/Info : Audio Video InterleaveFile size : 751 MiBDuration : 1h 9mnOverall bit rate : 1 509 KbpsMovie name : Хранители легенды (Кашкин)Director : by alenavovaWriting application : VirtualDubMod | || (build 2550/release)Copyright : Edich2Comment :
    VideoID : 0Format : MPEG-4 VisualFormat profile : Advanced Simple@L5Format settings, BVOP : 1Format settings, QPel : NoFormat settings, GMC : No warppointsFormat settings, Matrix : Default (MPEG)Codec ID : XVIDCodec ID/Hint : XviDDuration : 1h 9mnBit rate : 1 307 KbpsWidth : 640 pixelsHeight : 480 pixelsDisplay aspect ratio : 4:3Frame rate : 25.000 fpsColor space : YUVChroma subsampling : 4:2:0Bit depth : 8 bitsScan type : ProgressiveCompression mode : LossyBits/(Pixel*Frame) : 0.170Stream size : 650 MiB (87%)Writing library : XviD 1.2.1 (UTC 2008-12-04)
    AudioID : 1Format : AC-3Format/Info : Audio Coding 3Mode extension : CM (complete main)Format settings, Endianness : BigCodec ID : 2000Duration : 1h 9mnBit rate mode : ConstantBit rate : 192 KbpsChannel(s) : 2 channelsChannel positions : Front: L RSampling rate : 48.0 KHzBit depth : 16 bitsCompression mode : LossyStream size : 95.5 MiB (13%)Alignment : Split accross interleavesInterleave, duration : 40 ms (1.00 video frame)Interleave, preload duration : 500 ms


    Download .torrent

    Download free and at maximum speed!

    How to Download? · What is a torrent? · Ratings and Limitations

    The site does not extend and does not store electronic(digital) versions of products, and only gives access to a reference catalogue created by users on torrent-files which contain only lists of the hash-sums, the earnest entreaty, with complaints(abuse) to access directly to the user. Files for an exchange on tracker are given by users of a site, and the administration does not bear the responsibility for their maintenance. The request to not fill in the files protected by copyrights, and also files of the illegal maintenance!

    [Profile] [PM]
    Display posts from previous:    
    Reply to topic

    The time now is: Today 22:39

    All times are GMT + 3 Hours

    You cannot post new topics in this forum
    You cannot reply to topics in this forum
    You cannot edit your posts in this forum
    You cannot delete your posts in this forum
    You cannot vote in polls in this forum
    You cannot attach files in this forum
    You cannot download files in this forum