BitTorrentTracker PerecTracker.org
BitTorrentTracker PerecTracker.org
    
Регистрация  ·  Вход
 
 · 
Забыли пароль?

  • Как приручить дракона 2 / How to Train Your Dragon 2 (Дин ДеБлуа / Dean DeBlois) [2014, фэнтези, комедия, приключения, семейный, BDRip-AVC] Dub + Sub (Rus, Ukr, Eng) + Original Eng

    Ответить на тему
     
    Автор Сообщение

    rechyn

    Создавать темы 13-Мар-2015 22:55

           

    [Цитировать]


    Как приручить дракона 2 / How to Train Your Dragon 2
    Страна: США
    Жанр: фэнтези, комедия, приключения, семейный
    Продолжительность: 01:41:55
    Год выпуска: 2014
    Перевод: Профессиональный (дублированный)
    Русские субтитры: есть--Режиссёр: Дин ДеБлуа / Dean DeBlois--Роли озвучивали: Джей Барушель, Кейт Бланшетт, Джерард Батлер, Крэйг Фергюсон, Америка Феррера, Джона Хилл, Кристофер Минц-Плассе, ТиДжей Миллер, Кристен Уиг, Джимон Хонсу...--Описание: С момента примирения викингов и драконов прошло пять лет. Пока Астрид, Сморкала и остальные ребята проводят время, соревнуясь друг с другом в популярных на острове драконьих гонках, Иккинг и Беззубик путешествуют по небу, составляя карту неизвестных мест. Когда одно из их приключений приводит к открытию тайной ледяной пещеры, которая является домом для сотен ранее невиданных диких драконов и таинственного драконьего всадника, два друга оказываются в центре битвы за защиту мира.--Доп. информация: Kinopoisk | IMDB | Sample | --Качество: BDRip-AVC
    Формат: MKV
    Видео: MPEG4/ISO/AVC, 1040x442, 23.976 fps, 2 857 kbps, 0.259 bit/pixel.
    Аудио: Русский, 48 kHz, AC3 Dolby Digital, 3/2 (L,C,R,l,r) + LFE ch, 448.00 kbps
    Аудио: English, 48 kHz, AC3 Dolby Digital, 3/2 (L,C,R,l,r) + LFE ch, 448.00 kbps
    Субтитры: Русские, Украинские English.

    Скриншоты

    Подробные технические данные

    x264

    raw [info]: 1040x442p 1:1 @ 24000/1001 fps (cfr)
    x264 [info]: using SAR=1/1
    x264 [info]: using cpu capabilities: MMX2 SSE2Fast SSSE3 SSE4.2 AVX
    x264 [info]: profile High, level 4.1
    x264 [info]: frame I:1055 Avg QP:15.49 size: 72867
    x264 [info]: frame P:38054 Avg QP:17.57 size: 27735
    x264 [info]: frame B:107506 Avg QP:20.74 size: 10294
    x264 [info]: consecutive B-frames: 3.3% 3.8% 15.8% 38.0% 17.0% 14.9% 1.5% 2.8% 0.5% 0.2% 0.1% 0.1% 0.1% 1.3% 0.4% 0.1%
    x264 [info]: mb I I16..4: 5.3% 66.8% 27.9%
    x264 [info]: mb P I16..4: 2.1% 19.2% 4.8% P16..4: 31.3% 19.4% 15.5% 1.5% 0.5% skip: 5.6%
    x264 [info]: mb B I16..4: 0.3% 2.4% 0.9% B16..8: 35.1% 14.1% 5.0% direct: 5.9% skip:36.2% L0:39.2% L1:41.5% BI:19.3%
    x264 [info]: 8x8 transform intra:71.1% inter:56.3%
    x264 [info]: coded y,uvDC,uvAC intra: 82.2% 72.7% 51.7% inter: 24.1% 16.7% 5.1%
    x264 [info]: i16 v,h,dc,p: 16% 22% 6% 56%
    x264 [info]: i8 v,h,dc,ddl,ddr,vr,hd,vl,hu: 11% 13% 9% 8% 11% 11% 13% 11% 14%
    x264 [info]: i4 v,h,dc,ddl,ddr,vr,hd,vl,hu: 9% 9% 5% 9% 16% 13% 15% 11% 14%
    x264 [info]: i8c dc,h,v,p: 44% 27% 16% 13%
    x264 [info]: Weighted P-Frames: Y:2.9% UV:2.1%
    x264 [info]: ref P L0: 51.2% 10.9% 14.4% 6.2% 4.2% 3.6% 2.6% 1.8% 1.4% 1.3% 1.1% 1.2% 0.3% 0.0%
    x264 [info]: ref B L0: 78.9% 9.0% 4.3% 2.2% 1.6% 1.1% 1.0% 0.6% 0.6% 0.4% 0.2%
    x264 [info]: ref B L1: 93.4% 6.6%
    x264 [info]: kb/s:2929.18
    x264 [total]: encoded 146615 frames, 1.72 fps, 2929.18 kb/s.
    General
    Unique ID : 213020731556803333510248671027265882986 (0xA0424CF20722A76FBFE39BEA08754B6A)
    Complete name : Как приручить дракона (2014).mkv
    Format : Matroska
    Format version : Version 4 / Version 2
    File size : 2.73 GiB
    Duration : 1h 41mn
    Overall bit rate : 3 829 Kbps
    Movie name : Как приручить дракона 2 / How to Train Your Dragon 2 (2014)
    Encoded date : UTC 2015-03-09 18:19:57
    Writing application : mkvmerge v7.7.0 ('Six Voices') 64bit built on Feb 28 2015 23:39:33
    Writing library : libebml v1.3.1 + libmatroska v1.4.2
    Attachements : cover.png
    DURATION : 01:40:36.596000000
    NUMBER_OF_FRAMES : 2017
    NUMBER_OF_BYTES : 44992
    _STATISTICS_WRITING_APP : mkvmerge v7.7.0 ('Six Voices') 64bit built on Feb 28 2015 23:39:33
    _STATISTICS_WRITING_DATE_UT : 2015-03-09 18:19:57
    _STATISTICS_TAGS : BPS DURATION NUMBER_OF_FRAMES NUMBER_OF_BYTES
    Video
    ID : 1
    Format : AVC
    Format/Info : Advanced Video Codec
    Format profile : High@L4.1
    Format settings, CABAC : Yes
    Format settings, ReFrames : 12 frames
    Codec ID : V_MPEG4/ISO/AVC
    Duration : 1h 41mn
    Bit rate : 2 857 Kbps
    Width : 1 040 pixels
    Height : 442 pixels
    Display aspect ratio : 2.35:1
    Frame rate mode : Constant
    Frame rate : 23.976 fps
    Color space : YUV
    Chroma subsampling : 4:2:0
    Bit depth : 8 bits
    Scan type : Progressive
    Bits/(Pixel*Frame) : 0.259
    Stream size : 2.03 GiB (75%)
    Title : By optik.1557
    Writing library : x264 core 144 r2525kMod 40bb568
    Encoding settings : cabac=1 / ref=12 / deblock=1:-2:-1 / analyse=0x3:0x133 / me=umh / subme=10 / psy=1 / fade_compensate=0.00 / psy_rd=1.05:0.03 / mixed_ref=1 / me_range=48 / chroma_me=1 / trellis=2 / 8x8dct=1 / cqm=0 / deadzone=21,11 / fast_pskip=0 / chroma_qp_offset=-3 / threads=6 / lookahead_threads=1 / sliced_threads=0 / nr=0 / decimate=1 / interlaced=0 / bluray_compat=0 / constrained_intra=0 / fgo=0 / bframes=15 / b_pyramid=2 / b_adapt=2 / b_bias=0 / direct=1 / weightb=1 / open_gop=0 / weightp=2 / keyint=250 / keyint_min=23 / scenecut=40 / intra_refresh=0 / rc_lookahead=60 / rc=crf / mbtree=0 / crf=16.0000 / qcomp=0.60 / qpmin=0 / qpmax=69 / qpstep=4 / vbv_maxrate=50000 / vbv_bufsize=62500 / crf_max=0.0 / nal_hrd=none / filler=0 / ip_ratio=1.40 / pb_ratio=1.30 / aq=2:0.90 / zones=135700,146615,q=30
    Language : English
    Default : Yes
    Forced : No
    DURATION : 01:41:55.068000000
    NUMBER_OF_FRAMES : 146615
    NUMBER_OF_BYTES : 2239018505
    _STATISTICS_WRITING_APP : mkvmerge v7.7.0 ('Six Voices') 64bit built on Feb 28 2015 23:39:33
    _STATISTICS_WRITING_DATE_UT : 2015-03-09 18:19:57
    _STATISTICS_TAGS : BPS DURATION NUMBER_OF_FRAMES NUMBER_OF_BYTES
    Audio #1
    ID : 2
    Format : AC-3
    Format/Info : Audio Coding 3
    Mode extension : CM (complete main)
    Format settings, Endianness : Big
    Codec ID : A_AC3
    Duration : 1h 41mn
    Bit rate mode : Constant
    Bit rate : 448 Kbps
    Channel(s) : 6 channels
    Channel positions : Front: L C R, Side: L R, LFE
    Sampling rate : 48.0 KHz
    Bit depth : 16 bits
    Compression mode : Lossy
    Stream size : 327 MiB (12%)
    Title : Дубляж
    Language : Russian
    Default : Yes
    Forced : No
    Audio #2
    ID : 3
    Format : AC-3
    Format/Info : Audio Coding 3
    Mode extension : CM (complete main)
    Format settings, Endianness : Big
    Codec ID : A_AC3
    Duration : 1h 41mn
    Bit rate mode : Constant
    Bit rate : 448 Kbps
    Channel(s) : 6 channels
    Channel positions : Front: L C R, Side: L R, LFE
    Sampling rate : 48.0 KHz
    Bit depth : 16 bits
    Compression mode : Lossy
    Stream size : 327 MiB (12%)
    Language : English
    Default : No
    Forced : No
    Text #1
    ID : 4
    Format : UTF-8
    Codec ID : S_TEXT/UTF8
    Codec ID/Info : UTF-8 Plain Text
    Language : Russian
    Default : No
    Forced : No
    Text #2
    ID : 5
    Format : UTF-8
    Codec ID : S_TEXT/UTF8
    Codec ID/Info : UTF-8 Plain Text
    Language : Ukrainian
    Default : No
    Forced : No
    Text #3
    ID : 6
    Format : UTF-8
    Codec ID : S_TEXT/UTF8
    Codec ID/Info : UTF-8 Plain Text
    Language : English
    Default : No
    Forced : No
    Menu
    00:00:00.000 : en:Chapter 1
    00:03:27.999 : en:Chapter 2
    00:05:20.695 : en:Chapter 3
    00:07:46.007 : en:Chapter 4
    00:10:16.032 : en:Chapter 5
    00:13:16.337 : en:Chapter 6
    00:16:59.060 : en:Chapter 7
    00:20:01.700 : en:Chapter 8
    00:23:43.255 : en:Chapter 9
    00:27:14.466 : en:Chapter 10
    00:29:21.468 : en:Chapter 11
    00:33:41.937 : en:Chapter 12
    00:37:05.473 : en:Chapter 13
    00:39:06.970 : en:Chapter 14
    00:40:59.165 : en:Chapter 15
    00:45:03.993 : en:Chapter 16
    00:47:16.625 : en:Chapter 17
    00:51:51.525 : en:Chapter 18
    00:54:35.731 : en:Chapter 19
    00:56:15.998 : en:Chapter 20
    01:00:33.171 : en:Chapter 21
    01:04:28.782 : en:Chapter 22
    01:06:34.949 : en:Chapter 23
    01:09:44.138 : en:Chapter 24
    01:14:01.854 : en:Chapter 25
    01:18:35.127 : en:Chapter 26
    01:21:07.154 : en:Chapter 27
    01:22:55.053 : en:Chapter 28
    01:24:30.065 : en:Chapter 29
    01:28:04.654 : en:Chapter 30
    01:31:03.500 : en:Chapter 31
    01:32:21.995 : en:Chapter 32
    Скачать .torrent

    Скачать торрент-файл бесплатно и на максимальной скорости!

    Как скачивать? · Что такое торрент? · Рейтинг и ограничения

    !ВНИМАНИЕ!
    Сайт не распространяет и не хранит электронные версии произведений, а занимается лишь лишь предоставлением доступа к создаваемому пользователями каталогу ссылок на торрент-файлы, которые содержат только списки хеш-сумм, убедительная просьба с жалобами обращаться напрямую к пользователю. Файлы для обмена на трекере предоставлены пользователями сайта, и администрация не несёт ответственности за их содержание. Просьба не заливать файлы, защищенные авторскими правами, а также файлы нелегального содержания!


    _________________
    [Профиль] [ЛС]
    Показать сообщения:    
    Ответить на тему

    Текущее время: Сегодня, в 20:55

    Часовой пояс: GMT + 2



    Вы не можете начинать темы
    Вы не можете отвечать на сообщения
    Вы не можете редактировать свои сообщения
    Вы не можете удалять свои сообщения
    Вы не можете голосовать в опросах
    Вы не можете прикреплять файлы к сообщениям
    Вы не можете скачивать файлы