BitTorrentTracker PerecTracker.org
BitTorrentTracker PerecTracker.org
    
Регистрация  ·  Вход
 
 · 
Забыли пароль?

  • Тяжелый металл / Heavy Metal (Джеральд Поттертон / Gerald Potterton) [1981, фантастика, фэнтези, приключения, BDRip-AVC] Dub + AVO (Сергей Визгунов)+ DVO + Rus Sub, Eng + Original Eng

    Ответить на тему
     
    Автор Сообщение

    rechyn

    Создавать темы 13-Мар-2015 22:55

           

    [Цитировать]

    Тяжелый металл / Heavy Metal
    Страна: Канада
    Жанр: фантастика, фэнтези, приключения
    Продолжительность: 01:30:20
    Год выпуска: 1981
    Перевод 1: Профессиональный (дублированный)
    Перевод 2: Авторский (одноголосый закадровый) Сергей Визгунов
    Перевод 3: Профессиональный (двухголосый закадровый) отдельным файлом
    Русские субтитры: есть
    Режиссёр: Джеральд Поттертон / Gerald Potterton
    Роли озвучивали: Дон Фрэнкс, Кэролайн Семпл, Ричард Романус, Сьюзэн Роман, Эл Уоксмен, Харви Аткин, Джон Кэнди, Гленис Вуттон Гросс, Мэрлин Лайтстоун, Джеки Барроуз...
    Описание: Это великолепный мультфильм для взрослых, снятый с огромным размахом по комиксам знаменитых художников Кевина Истмэна, Саймона Бизли и Эрика Тэлбота, рисующих для журнала «Heavy Metal». Удивительное сочетание ужасов, черного юмора и великолепного саундтрека, включающего Nazareth, Black Sabbath, Sammy Hagar, Blue Oyster Cult и др. Этот мультфильм заставит вас с затаенным дыханием следить за напряженной битвой между вселенскими силами добра и зла.
    Семпл: http://multi-up.com/1037707
    Качество: BDRip-AVC
    Формат: MKV
    Видео: 912x494 (1.85:1), 23.976 fps, AVC, ~3000 Kbps, 0.278 bits/pixel
    Аудио 1: Russian, 48.0 KHz, AC3, 2 ch, 192 Kbps - Dub
    Аудио 2: Russian, 48.0 KHz, AC3, 2 ch, 192 Kbps - Сергей Визгунов
    Аудио 3: Russian, 48.0 KHz, AC3, 6 ch, 384 Kbps - DVO отдельным файлом
    Аудио 4: English, 48.0 KHz, AC3, 6 ch, 448 Kbps отдельным файлом
    Субтитры: русские, английские

    Log

    avs4x264.exe: -L x264_64.exe --pass 2 --bitrate 3000 --preset medium --ref 10 --deblock -1:-1 --merange 32 --bframes 10 --direct auto --b-adapt 2 --trellis 2 --no-fast-pskip --psy-rd 1.00:0.10 --partitions all --subme 10 --me umh --rc-lookahead 50 --sar 1:1 --stats
    raw [info]: 912x494p 1:1 @ 24000/1001 fps (cfr)x264 [info]: using SAR=1/1x264 [info]: using cpu capabilities: MMX2 SSE2Fast LZCNTx264 [info]: profile High, level 3.1
    x264 [info]: frame I:1023 Avg QP:18.89 size: 99970x264 [info]: frame P:29764 Avg QP:22.10 size: 29184x264 [info]: frame B:99174 Avg QP:24.11 size: 10692x264 [info]: consecutive B-frames: 2.4% 2.8% 13.2% 20.6% 23.0% 25.1% 4.8% 1.9% 2.3% 1.8% 2.0%x264 [info]: mb I I16..4: 4.1% 76.1% 19.9%x264 [info]: mb P I16..4: 0.6% 7.4% 1.1% P16..4: 44.5% 22.6% 20.2% 0.7% 0.2% skip: 2.7%x264 [info]: mb B I16..4: 0.0% 1.3% 0.1% B16..8: 43.4% 10.2% 3.1% direct: 8.7% skip:33.1% L0:49.2% L1:44.6% BI: 6.2%x264 [info]: 8x8 transform intra:82.6% inter:64.0%x264 [info]: direct mvs spatial:97.8% temporal:2.2%x264 [info]: coded y,uvDC,uvAC intra: 91.9% 95.5% 89.8% inter: 28.2% 46.2% 29.5%x264 [info]: i16 v,h,dc,p: 44% 18% 17% 21%x264 [info]: i8 v,h,dc,ddl,ddr,vr,hd,vl,hu: 6% 6% 9% 12% 16% 13% 14% 11% 12%x264 [info]: i4 v,h,dc,ddl,ddr,vr,hd,vl,hu: 8% 8% 3% 11% 16% 14% 14% 12% 14%x264 [info]: i8c dc,h,v,p: 60% 12% 10% 18%x264 [info]: Weighted P-Frames: Y:17.4% UV:10.1%x264 [info]: ref P L0: 37.2% 10.5% 19.0% 7.8% 7.2% 4.9% 5.0% 2.6% 2.8% 2.2% 0.8% 0.1%x264 [info]: ref B L0: 56.1% 17.6% 9.0% 5.4% 3.7% 3.6% 2.7% 1.3% 0.6%x264 [info]: ref B L1: 89.1% 10.9%x264 [info]: kb/s:2997.93
    x264 [total]: encoded 129961 frames, 8.08 fps, 2997.93 kb/s

    Подробные технические данные

    GeneralUnique ID : 175734758989893616238609555357131696918 (0x84354890E396E371AED70CEFD9BD6B16)Complete name : C:\Heavy Metal\Heavy Metal.mkvFormat : MatroskaFormat version : Version 4 / Version 2File size : 2.14 GiBDuration : 1h 30mnOverall bit rate : 3 384 KbpsEncoded date : UTC 2015-03-11 14:53:25Writing application : mkvmerge v7.5.0 ('Glass Culture') 64bit built on Jan 4 2015 16:48:44Writing library : libebml v1.3.1 + libmatroska v1.4.2DURATION : 01:24:05.956000000NUMBER_OF_FRAMES : 547NUMBER_OF_BYTES : 19497_STATISTICS_WRITING_APP : mkvmerge v7.5.0 ('Glass Culture') 64bit built on Jan 4 2015 16:48:44_STATISTICS_WRITING_DATE_UT : 2015-03-11 14:53:25_STATISTICS_TAGS : BPS DURATION NUMBER_OF_FRAMES NUMBER_OF_BYTES
    VideoID : 1Format : AVCFormat/Info : Advanced Video CodecFormat profile : High@L3.1Format settings, CABAC : YesFormat settings, ReFrames : 10 framesCodec ID : V_MPEG4/ISO/AVCDuration : 1h 30mnBit rate : 3 000 KbpsWidth : 912 pixelsHeight : 494 pixelsDisplay aspect ratio : 1.85:1Frame rate mode : ConstantFrame rate : 23.976 fpsColor space : YUVChroma subsampling : 4:2:0Bit depth : 8 bitsScan type : ProgressiveBits/(Pixel*Frame) : 0.278Stream size : 1.85 GiB (87%)Writing library : x264 core 144 r2525 40bb568Encoding settings : cabac=1 / ref=10 / deblock=1:-1:-1 / analyse=0x3:0x133 / me=umh / subme=10 / psy=1 / psy_rd=1.00:0.10 / mixed_ref=1 / me_range=32 / chroma_me=1 / trellis=2 / 8x8dct=1 / cqm=0 / deadzone=21,11 / fast_pskip=0 / chroma_qp_offset=-3 / threads=6 / lookahead_threads=1 / sliced_threads=0 / nr=0 / decimate=1 / interlaced=0 / bluray_compat=0 / constrained_intra=0 / bframes=10 / b_pyramid=2 / b_adapt=2 / b_bias=0 / direct=3 / weightb=1 / open_gop=0 / weightp=2 / keyint=250 / keyint_min=23 / scenecut=40 / intra_refresh=0 / rc_lookahead=50 / rc=2pass / mbtree=1 / bitrate=3000 / ratetol=1.0 / qcomp=0.60 / qpmin=0 / qpmax=69 / qpstep=4 / cplxblur=20.0 / qblur=0.5 / ip_ratio=1.40 / aq=1:1.00Language : EnglishDefault : YesForced : No
    Audio #1ID : 2Format : AC-3Format/Info : Audio Coding 3Mode extension : CM (complete main)Format settings, Endianness : BigCodec ID : A_AC3Duration : 1h 30mnBit rate mode : ConstantBit rate : 192 KbpsChannel(s) : 2 channelsChannel positions : Front: L RSampling rate : 48.0 KHzBit depth : 16 bitsCompression mode : LossyStream size : 124 MiB (6%)Title : DubLanguage : RussianDefault : YesForced : No
    Audio #2ID : 3Format : AC-3Format/Info : Audio Coding 3Mode extension : CM (complete main)Format settings, Endianness : BigCodec ID : A_AC3Duration : 1h 30mnBit rate mode : ConstantBit rate : 192 KbpsChannel(s) : 2 channelsChannel positions : Front: L RSampling rate : 48.0 KHzBit depth : 16 bitsCompression mode : LossyStream size : 124 MiB (6%)Title : Сергей ВизгуновLanguage : RussianDefault : NoForced : No
    Text #1ID : 4Format : UTF-8Codec ID : S_TEXT/UTF8Codec ID/Info : UTF-8 Plain TextLanguage : RussianDefault : NoForced : No
    Text #2ID : 5Format : UTF-8Codec ID : S_TEXT/UTF8Codec ID/Info : UTF-8 Plain TextLanguage : EnglishDefault : NoForced : No
    Menu00:00:00.000 : en:00:00:00.00000:06:49.409 : en:00:06:49.40900:13:00.780 : en:00:13:00.78000:16:45.713 : en:00:16:45.71300:22:36.230 : en:00:22:36.23000:27:59.428 : en:00:27:59.42800:33:21.208 : en:00:33:21.20800:38:04.073 : en:00:38:04.07300:41:04.587 : en:00:41:04.58700:47:39.815 : en:00:47:39.81500:55:28.200 : en:00:55:28.20000:59:49.044 : en:00:59:49.04401:02:46.763 : en:01:02:46.76301:09:14.192 : en:01:09:14.19201:16:24.830 : en:01:16:24.83001:22:21.895 : en:01:22:21.895

    Скриншоты

    Скачать .torrent

    Скачать торрент-файл бесплатно и на максимальной скорости!

    Как скачивать? · Что такое торрент? · Рейтинг и ограничения

    !ВНИМАНИЕ!
    Сайт не распространяет и не хранит электронные версии произведений, а занимается лишь лишь предоставлением доступа к создаваемому пользователями каталогу ссылок на торрент-файлы, которые содержат только списки хеш-сумм, убедительная просьба с жалобами обращаться напрямую к пользователю. Файлы для обмена на трекере предоставлены пользователями сайта, и администрация не несёт ответственности за их содержание. Просьба не заливать файлы, защищенные авторскими правами, а также файлы нелегального содержания!


    _________________
    [Профиль] [ЛС]
    Показать сообщения:    
    Ответить на тему

    Текущее время: Сегодня, в 11:36

    Часовой пояс: GMT + 2



    Вы не можете начинать темы
    Вы не можете отвечать на сообщения
    Вы не можете редактировать свои сообщения
    Вы не можете удалять свои сообщения
    Вы не можете голосовать в опросах
    Вы не можете прикреплять файлы к сообщениям
    Вы не можете скачивать файлы