BitTorrentTracker PerecTracker.org
BitTorrentTracker PerecTracker.org
    
Регистрация  ·  Вход
 
 · 
Забыли пароль?

  • Розыгрыш / Prank (Ювинг Лам / Yiuwing Lam) [2013, США, криминал, триллер, WEB-DLRip] VO den904

    Ответить на тему
     
    Автор Сообщение

    Light

    Создавать темы 13-Мар-2015 22:55

           

    [Цитировать]

    Розыгрыш / Prank
    Страна: США / USA
    Жанр: криминал, триллер, мокьюментари
    Год выпуска: 2013
    Продолжительность: 01:21:56
    Перевод : Одноголосый закадровый [den904]
    Cубтитры: нет
    Режиссер: Ювинг Лам / Yiuwing LamВ ролях:
    Ник Рено / Nick Renaud - Connor Burns
    Генри Монфрис / Henry Monfries - Jordan Bloom
    Джеменн де ла Пенья / Gemmenne de la Peña - Chunk
    Ханна Касулка / Hannah Kasulka - Eve Goodwin
    Аластер Джеймс / Alastair James - Dax Gaiman
    Рене Каде / Rene Cadet - Omar
    Рэйчел Дуэйм / Rachel Duhame - Sis
    и др.
    Описание: Трое подростков, учеников выпускного класса школы, решили разыграть своего обидчика. Однако вместо невинного розыгрыша его ждала жестокая казнь.Доп. информация:
    Качество видео: WEB-DLRip [WEB-DL 1080p]
    Формат видео: AVI
    Видео кодек: XviD
    Аудио кодек: AC3
    Видео: 720x400 (1,80:1), 23,976 fps, XviD, 1995 kbps avg, 0.289 bit/pixel
    Аудио : Rus 384.00 kbps avg, 48,0 kHz, 3/2 (L,C,R,l,r) + LFE ch, AC3 Dolby Digital VO

    MediaInfo


    Общее
    Полное имя : C:\ Prank.2013.VO.WEB-DLRip.by medvezhonokkkk.avi
    Формат : AVI
    Формат/Информация : Audio Video Interleave
    Размер файла : 1,37 Гбайт
    Продолжительность : 1 ч. 21 м.
    Общий поток : 2388 Кбит/сек
    Программа кодирования : VirtualDubMod 1.5.10.2 (build 2540/release)
    Библиотека кодирования : VirtualDubMod build 2540/release
    Видео
    Идентификатор : 0
    Формат : MPEG-4 Visual
    Профиль формата : Advanced Simple@L5
    Параметр BVOP формата : 2
    Параметр QPel формата : Нет
    Параметр GMC формата : Без точки перехода
    Параметр матрицы формата : Выборочная
    Идентификатор кодека : XVID
    Идентификатор кодека/Подсказка : XviD
    Продолжительность : 1 ч. 21 м.
    Битрейт : 1995 Кбит/сек
    Ширина : 720 пикселей
    Высота : 400 пикселей
    Соотношение сторон : 16:9
    Частота кадров : 23,976 кадра/сек
    Цветовое пространство : YUV
    Субдискретизация насыщенности : 4:2:0
    Битовая глубина : 8 бит
    Тип развёртки : Прогрессивная
    Метод сжатия : С потерями
    Бит/(Пиксели*Кадры) : 0.289
    Размер потока : 1,14 Гбайт (84%)
    Библиотека кодирования : XviD 1.2.1 (UTC 2008-12-04)
    Аудио
    Идентификатор : 1
    Формат : AC-3
    Формат/Информация : Audio Coding 3
    Расширение режима : CM (complete main)
    Параметр Endianness формата : Big
    Идентификатор кодека : 2000
    Продолжительность : 1 ч. 21 м.
    Вид битрейта : Постоянный
    Битрейт : 384 Кбит/сек
    Каналы : 6 каналов
    Расположение каналов : Front: L C R, Side: L R, LFE
    Частота : 48,0 КГц
    Битовая глубина : 16 бит
    Метод сжатия : С потерями
    Размер потока : 225 Мбайт (16%)
    Выравнивание : Разделение по промежуткам
    Продолжительность промежутка : 42 мс. (1,00 видеокадр)
    Время предзагрузки промежутка : 500 мс.

    Скриншот c названием фильма

    Скриншоты

    Скачать .torrent

    Скачать торрент-файл бесплатно и на максимальной скорости!

    Как скачивать? · Что такое торрент? · Рейтинг и ограничения

    !ВНИМАНИЕ!
    Сайт не распространяет и не хранит электронные версии произведений, а занимается лишь лишь предоставлением доступа к создаваемому пользователями каталогу ссылок на торрент-файлы, которые содержат только списки хеш-сумм, убедительная просьба с жалобами обращаться напрямую к пользователю. Файлы для обмена на трекере предоставлены пользователями сайта, и администрация не несёт ответственности за их содержание. Просьба не заливать файлы, защищенные авторскими правами, а также файлы нелегального содержания!


    _________________
    [Профиль] [ЛС]
    Показать сообщения:    
    Ответить на тему

    Текущее время: Сегодня, в 12:42

    Часовой пояс: GMT + 2



    Вы не можете начинать темы
    Вы не можете отвечать на сообщения
    Вы не можете редактировать свои сообщения
    Вы не можете удалять свои сообщения
    Вы не можете голосовать в опросах
    Вы не можете прикреплять файлы к сообщениям
    Вы не можете скачивать файлы