Register  ·  Log in
Forgot password?

  • Третья персона / Third Person (Пол Хаггис / Paul Haggis) [2013, Великобритания, США, Германия, Бельгия, драма, мелодрама, HDRip] MVO

    Reply to topic
    Author Message


    Post 13-Mar-2015 19:43



    Третья персона / Third Person
    Страна: Великобритания, США, Германия, Бельгия
    Жанр: драма, мелодрама
    Год выпуска: 2013
    Продолжительность: 02:16:45
    Перевод: Профессиональный (многоголосый закадровый) [Лицензия]
    Cубтитры: нет
    Режиссер: Пол Хаггис / Paul Haggis
    В ролях: Лиам Нисон, Мила Кунис, Эдриан Броуди, Оливия Уайлд, Джеймс Франко, Мария Белло, Ким Бейсингер, Моран Атиас, Микеле Мелега, Джанни Франко
    Описание: Фильм состоит из трех историй о любви, действие которых развернется в трех разных городах: Нью-Йорке, Париже и Риме.
    Релиз группы:
    Качество видео: HDRip
    Формат видео: AVI
    Видео: 720x304 (2.37:1), 23.976 fps, XviD build 73 ~1071 kbps avg, 0.20 bit/pixel
    Аудио: 48 kHz, AC3 Dolby Digital, 3/2 (L,C,R,l,r) + LFE ch, ~448 kbps


    Format : AVI
    Format/Info : Audio Video Interleave
    File size : 1.46 GiB
    Duration : 2h 16mn
    Overall bit rate : 1 528 Kbps
    Movie name : Tretya.Persona.2013.D.HDRip.1490MB
    Director : 3imeMachi9e
    Writing application : VirtualDubMod | || (build 2550/release)
    ID : 0
    Format : MPEG-4 Visual
    Format profile : Advanced Simple@L5
    Format settings, BVOP : 2
    Format settings, QPel : No
    Format settings, GMC : No warppoints
    Format settings, Matrix : Default (MPEG)
    Codec ID : XVID
    Codec ID/Hint : XviD
    Duration : 2h 16mn
    Bit rate : 1 071 Kbps
    Width : 720 pixels
    Height : 304 pixels
    Display aspect ratio : 2.35:1
    Frame rate : 23.976 fps
    Color space : YUV
    Chroma subsampling : 4:2:0
    Bit depth : 8 bits
    Scan type : Progressive
    Compression mode : Lossy
    Bits/(Pixel*Frame) : 0.204
    Stream size : 1.02 GiB (70%)
    Writing library : XviD 73
    ID : 1
    Format : AC-3
    Format/Info : Audio Coding 3
    Mode extension : CM (complete main)
    Format settings, Endianness : Big
    Codec ID : 2000
    Duration : 2h 16mn
    Bit rate mode : Constant
    Bit rate : 448 Kbps
    Channel(s) : 6 channels
    Channel positions : Front: L C R, Side: L R, LFE
    Sampling rate : 48.0 KHz
    Bit depth : 16 bits
    Compression mode : Lossy
    Stream size : 438 MiB (29%)
    Alignment : Split accross interleaves
    Interleave, duration : 42 ms (1.00 video frame)
    Interleave, preload duratio : 500 ms

    Скриншот c названием фильма


    Download .torrent

    Download free and at maximum speed!

    How to Download? · What is a torrent? · Ratings and Limitations

    The site does not extend and does not store electronic(digital) versions of products, and only gives access to a reference catalogue created by users on torrent-files which contain only lists of the hash-sums, the earnest entreaty, with complaints(abuse) to access directly to the user. Files for an exchange on tracker are given by users of a site, and the administration does not bear the responsibility for their maintenance. The request to not fill in the files protected by copyrights, and also files of the illegal maintenance!

    [Profile] [PM]
    Display posts from previous:    
    Reply to topic

    The time now is: Today 22:24

    All times are GMT + 3 Hours

    You cannot post new topics in this forum
    You cannot reply to topics in this forum
    You cannot edit your posts in this forum
    You cannot delete your posts in this forum
    You cannot vote in polls in this forum
    You cannot attach files in this forum
    You cannot download files in this forum