BitTorrentTracker PerecTracker.org
BitTorrentTracker PerecTracker.org
    
Регистрация  ·  Вход
 
 · 
Забыли пароль?

  • Гибрид / Искра / The Gybrid / Scintilla (Билли О`Брайэн / Billy O\'Brien) [2014, Великобритания, фантастика, WEB-DLRip] VO (Хихидок)

    Ответить на тему
     
    Автор Сообщение

    Light

    Создавать темы 12-Мар-2015 21:43

           

    [Цитировать]

    Гибрид / Искра / The Gybrid / Scintilla
    Страна: Великобритания
    Жанр: фантастика
    Год выпуска: 2014
    Продолжительность: 01:34:12
    Перевод: Одноголосый (закадровый) [Xixidok ]
    Оригинальная аудиодорожка: нет
    Cубтитры: нет
    Режиссер: Билли О`Брайэн / Billy O'Brien
    В ролях:Джон Линч, Морьяна Алауи, Крэйг Конуэй, Антония Томас, Джумэйн Хантер, Бет Уинслет, Нед Деннехи, Перри Хэнсон, Эдвард Доглиани
    Описание:Элитная команда наемников выбрана для проведения тайной операции в бывшей советской республике. Сначала они должны сразиться со свирепыми вооруженными ополченцами, чтобы пробиться к спуску в подземный лабиринт, населенный страшными монстрами — плодом скрещивания ДНК человека из инопланетян.

    Качество: WEB-DLRip
    Контейнер: AVI
    Видео: 688x288 (2.39:1), 24 fps, XviD build 73 ~895 kbps avg, 0.19 bit/pixel
    Аудио: 44.1 kHz, AC3 Dolby Digital, 2/0 (L,R) ch, ~192 kbps

    MI

    Общее
    Полное имя : C:\Users\Вячеслав\Downloads\Искра_WEB-DRip_Некул.avi
    Формат : AVI
    Формат/Информация : Audio Video Interleave
    Размер файла : 740 Мбайт
    Продолжительность : 1 ч. 34 м.
    Общий поток : 1098 Кбит/сек
    Дата записи : -1
    Программа кодирования : XviD4PSP 7.0 / 55.48.100
    Примечание : MATROSKA,WEBM > AVI / MPEG4 > XVID CBR 1150kbps HQ / AC3 > AC3 CBR 192kbps
    Видео
    Идентификатор : 0
    Формат : MPEG-4 Visual
    Профиль формата : Advanced Simple@L5
    Параметр BVOP формата : 1
    Параметр QPel формата : Нет
    Параметр GMC формата : Без точки перехода
    Параметр матрицы формата : Default (H.263)
    Идентификатор кодека : XVID
    Идентификатор кодека/Подсказка : XviD
    Продолжительность : 1 ч. 34 м.
    Битрейт : 896 Кбит/сек
    Ширина : 688 пикселей
    Высота : 288 пикселей
    Соотношение сторон : 2,40:1
    Частота кадров : 24,000 кадра/сек
    Цветовое пространство : YUV
    Субдискретизация насыщенности : 4:2:0
    Битовая глубина : 8 бит
    Тип развёртки : Прогрессивная
    Метод сжатия : С потерями
    Бит/(Пиксели*Кадры) : 0.188
    Размер потока : 604 Мбайт (82%)
    Библиотека кодирования : XviD 73
    Аудио
    Идентификатор : 1
    Формат : AC-3
    Формат/Информация : Audio Coding 3
    Расширение режима : CM (complete main)
    Параметр Endianness формата : Big
    Идентификатор кодека : 2000
    Продолжительность : 1 ч. 34 м.
    Вид битрейта : Постоянный
    Битрейт : 192 Кбит/сек
    Каналы : 2 канала
    Расположение каналов : Front: L R
    Частота : 44,1 КГц
    Битовая глубина : 16 бит
    Метод сжатия : С потерями
    Размер потока : 129 Мбайт (17%)
    Выравнивание : Соединение по промежуткам
    Продолжительность промежутка : 35 мс. (0,84 видеокадр)

    Скриншоты

    Скачать .torrent

    Скачать торрент-файл бесплатно и на максимальной скорости!

    Как скачивать? · Что такое торрент? · Рейтинг и ограничения

    !ВНИМАНИЕ!
    Сайт не распространяет и не хранит электронные версии произведений, а занимается лишь лишь предоставлением доступа к создаваемому пользователями каталогу ссылок на торрент-файлы, которые содержат только списки хеш-сумм, убедительная просьба с жалобами обращаться напрямую к пользователю. Файлы для обмена на трекере предоставлены пользователями сайта, и администрация не несёт ответственности за их содержание. Просьба не заливать файлы, защищенные авторскими правами, а также файлы нелегального содержания!


    _________________
    [Профиль] [ЛС]
    Показать сообщения:    
    Ответить на тему

    Текущее время: Сегодня, в 08:10

    Часовой пояс: GMT + 2



    Вы не можете начинать темы
    Вы не можете отвечать на сообщения
    Вы не можете редактировать свои сообщения
    Вы не можете удалять свои сообщения
    Вы не можете голосовать в опросах
    Вы не можете прикреплять файлы к сообщениям
    Вы не можете скачивать файлы